The Osiris Child (2016) Full Latino

3.417 vistas
1 estrella2 estrellas3 estrellas4 estrellas5 estrellas (1 votos, promedio: 3,00 de 5)
Cargando…

Información de The Osiris Child (2016) Full Latino

Datos de la película

  • Calidad: 1080p
  • Audio: Español Latino AC3 2.0 iTUNES - Ingles AC3 5.1 BLURAY
  • Subtitulos: Español Latino SRT
  • Resolución: 1920x720pp
  • Formato: MKV
  • Codec: H.264
  • Encoder: Dpelis1
  • Mediainfo: Clic para Mostrar Datos Ver
  • Video
    ID                                       : 1
    Format                                   : AVC
    Format/Info                              : Advanced Video Codec
    Format profile                           : [email protected]
    Format settings, CABAC                   : Yes
    Format settings, RefFrames               : 5 frames
    Codec ID                                 : V_MPEG4/ISO/AVC
    Duration                                 : 1 h 39 min
    Bit rate                                 : 3 215 kb/s
    Nominal bit rate                         : 3 500 kb/s
    Width                                    : 1 920 pixels
    Height                                   : 720 pixels
    Display aspect ratio                     : 2.667
    Frame rate mode                          : Constant
    Frame rate                               : 23.976 (24000/1001) FPS
    Color space                              : YUV
    Chroma subsampling                       : 4:2:0
    Bit depth                                : 8 bits
    Scan type                                : Progressive
    Bits/(Pixel*Frame)                       : 0.097
    Stream size                              : 2.22 GiB (83%)
    Writing library                          : x264 core 148 r2708 86b7198
    Encoding settings                        : cabac=1 / ref=5 / deblock=1:0:0 / analyse=0x3:0x113 / me=umh / subme=8 / psy=1 / psy_rd=1.00:0.00 / mixed_ref=1 / me_range=16 / chroma_me=1 / trellis=1 / 8x8dct=1 / cqm=0 / deadzone=21,11 / fast_pskip=1 / chroma_qp_offset=-2 / threads=12 / lookahead_threads=2 / sliced_threads=0 / nr=0 / decimate=1 / interlaced=0 / bluray_compat=0 / constrained_intra=0 / bframes=3 / b_pyramid=2 / b_adapt=2 / b_bias=0 / direct=3 / weightb=1 / open_gop=0 / weightp=2 / keyint=240 / keyint_min=24 / scenecut=40 / intra_refresh=0 / rc_lookahead=50 / rc=abr / mbtree=1 / bitrate=3500 / ratetol=1.0 / qcomp=0.60 / qpmin=0 / qpmax=69 / qpstep=4 / vbv_maxrate=62500 / vbv_bufsize=78125 / nal_hrd=none / filler=0 / ip_ratio=1.40 / aq=1:1.00
    Default                                  : Yes
    Forced                                   : No
    Color range                              : Limited
    Color primaries                          : BT.709
    Transfer characteristics                 : BT.709
    Matrix coefficients                      : BT.709
    Statistics Tags Issue                    : mkvmerge v10.0.0 ('To Drown In You') 64bit 2017-10-05 01:07:26 / mkvmerge v10.0.0 ('To Drown In You') 64bit 2017-10-05 01:07:26 / UTC 2017-10-04T03:52:14Z
    FromStats_BitRate                        : 3290284
    FromStats_Duration                       : 01:39:03.104000000
    FromStats_FrameCount                     : 142492
    FromStats_StreamSize                     : 2444312681

    Audio #1
    ID                                       : 2
    Format                                   : AC-3
    Format/Info                              : Audio Coding 3
    Format settings, Endianness              : Big
    Codec ID                                 : A_AC3
    Duration                                 : 1 h 39 min
    Bit rate mode                            : Constant
    Bit rate                                 : 192 kb/s
    Channel(s)                               : 2 channels
    Channel positions                        : Front: L R
    Sampling rate                            : 48.0 kHz
    Frame rate                               : 31.250 FPS (1536 SPF)
    Bit depth                                : 16 bits
    Compression mode                         : Lossy
    Delay relative to video                  : 4 s 795 ms
    Stream size                              : 136 MiB (5%)
    Language                                 : Spanish
    Service kind                             : Complete Main
    Default                                  : Yes
    Forced                                   : No
    Statistics Tags Issue                    : mkvmerge v10.0.0 ('To Drown In You') 64bit 2017-10-05 01:07:26 / mkvmerge v10.0.0 ('To Drown In You') 64bit 2017-10-05 01:07:26 / UTC 2017-10-04T03:52:14Z
    FromStats_BitRate                        : 192000
    FromStats_Duration                       : 01:38:49.728000000
    FromStats_FrameCount                     : 185304
    FromStats_StreamSize                     : 142313472

    Audio #2
    ID                                       : 3
    Format                                   : AC-3
    Format/Info                              : Audio Coding 3
    Format settings, Endianness              : Big
    Codec ID                                 : A_AC3
    Duration                                 : 1 h 39 min
    Bit rate mode                            : Constant
    Bit rate                                 : 384 kb/s
    Channel(s)                               : 6 channels
    Channel positions                        : Front: L C R, Side: L R, LFE
    Sampling rate                            : 48.0 kHz
    Frame rate                               : 31.250 FPS (1536 SPF)
    Bit depth                                : 16 bits
    Compression mode                         : Lossy
    Delay relative to video                  : -5 ms
    Stream size                              : 272 MiB (10%)
    Title                                    : Surround
    Language                                 : French
    Service kind                             : Complete Main
    Default                                  : No
    Forced                                   : No
    Statistics Tags Issue                    : mkvmerge v10.0.0 ('To Drown In You') 64bit 2017-10-05 01:07:26 / mkvmerge v10.0.0 ('To Drown In You') 64bit 2017-10-05 01:07:26 / UTC 2017-10-04T03:52:14Z
    FromStats_BitRate                        : 384000
    FromStats_Duration                       : 01:39:03.040000000
    FromStats_FrameCount                     : 185720
    FromStats_StreamSize                     : 285265920

    Text
    ID                                       : 4
    Format                                   : UTF-8
    Codec ID                                 : S_TEXT/UTF8
    Codec ID/Info                            : UTF-8 Plain Text
    Default                                  : Yes
    Forced                                   : No
    Statistics Tags Issue                    : mkvmerge v10.0.0 ('To Drown In You') 64bit 2017-10-05 01:07:26 / mkvmerge v10.0.0 ('To Drown In You') 64bit 2017-10-05 01:07:26 / UTC 2017-10-04T03:52:14Z
    FromStats_BitRate                        : 63
    FromStats_Duration                       : 01:33:01.523000000
    FromStats_FrameCount                     : 1460
    FromStats_StreamSize                     : 44186

    Menu
    00:00:00.000                             : :00:00:00.000
    00:11:08.459                             : :00:11:08.376
    00:17:56.117                             : :00:17:56.075
    00:25:46.920                             : :00:25:46.795
    00:39:27.866                             : :00:39:27.782
    00:48:29.532                             : :00:48:29.490
    00:54:41.987                             : :00:54:41.904
    01:02:13.104                             : :01:02:13.021
    01:09:45.765                             : :01:09:45.723
    01:16:54.902                             : :01:16:54.902
    01:24:34.987                             : :01:24:34.903
    01:33:03.703                             : :01:33:03.703

  • Peso: 2,67 GB

Sinopsis

Descargar gratis Science Fiction Volume One: The Osiris Child (2016) Full Latino. Situad en una época de colonización interplanetaria, Sy Lombrok, un vagabundo con un oscuro pasado, formará una extraña alianza con Kane Sommerville, un teniente que trabaja para el contratista militar Exor. En una lucha contrarreloj, tendrán que rescatar a la hija de Kane, Indi (Teagan Croft), en medio de una inminente crisis global causada por Exor.

 

Ficha técnica

  • Titulo original: Science Fiction Volume One: The Osiris Child
  • Fecha de lanzamiento: 31-08-2017 (Australia)
  • Director: John Duong, Shane Abbess
  • Género: Ciencia ficción
  • Puntuación: 3.0 1 votos
  • Duración:
    1h 35m

Video trailer de la película

Enlaces de descarga

Rip de Bluray

Descargar The Osiris Child (2016) Full Latino




Aportes de DPeliculasHDmega la pass es:dpeliculashdmega.org Aportes de CinemaniaHD la pass es:cinemaniahdd.com
Guardado en : Ciencia ficción

Películas relacionadas

  • La nave del terror (1997) Full 1080p Latino

    1997
    La nave del terror (1997) Full 1080p Latino

    5.0 1h 36m 1997

    En el año 2047 una nave de rescate, la "Lewis & Clark", es enviada a investigar la misteriosa reaparición...

    Director: Paul W.S. Anderson

    Género: Ciencia ficción

    Actores: Teresa May

  • Replicas (2018) Full 1080p Latino

    2018
    Replicas (2018) Full 1080p Latino

    4.0 1h 47m 2018

    Thriller de ciencia ficción que se centra en un neurocientífico que, después de sufrir un accidente...

    Director: Jeffrey Nachmanoff

    Género: Ciencia ficción

    Actores: Thomas Middleditch

  • Supergirl (2018) Temporada 04 Web-DL 1080p Latino

    2015
    Supergirl (2018) Temporada 04 Web-DL 1080p Latino

    4.4 0h 42m 2015

    Descargar Supergirl (2018) Temporada 04 Web-DL 1080p Latino; Mega, Google Drive. Las aventuras de la...

    Director: Greg Berlanti

    Género: Acción

    Actores: Samuel Witwer

Comentarios 1
  • Jgava - 07 octubre, 2017

    gracias por el aporte..admi..