×

¿Problemas para descargar con Mozilla, EDGE? Deshabilita la opción "Abrir vinculos en una pestaña nueva" tal como lo muestra ésta imagen.

El Unico (2001) OPEN MATTE REMUX 1080p Latino-CMHDD

162 vistas

Información de El Unico (2001) OPEN MATTE REMUX 1080p Latino-CMHDD

Datos de la película

  • Calidad: Full 1080p
  • Audio: Se especifica abajo de la Sinopsis
  • Subtitulos: Español Latino SRT - Ingles SRT
  • Resolución: 1920x1080p
  • Formato: MKV
  • Codec: H.264
  • Encoder: CinefiloCool
  • Mediainfo: Clic para Mostrar Datos Ver
  • The.One.2001.OPEN.MATTE.Bluray.REMUX.1080p.AVC.Latino-CC@CMHDD.mkv
    Format                      : Matroska
    Format version              : Version 4
    File size                   : 16.4 GiB
    Duration                    : 1 h 27 min
    Overall bit rate mode       : Variable
    Overall bit rate            : 26.9 Mb/s
    Movie name                  : The One (2001) CinemaniaHDD.Net
    Encoded date                : UTC 2023-12-01 20:25:10
    Writing application         : mkvmerge v56.1.0 ('My Friend') 64-bit
    Writing library             : libebml v1.4.2 + libmatroska v1.6.4
    Attachments                 : CINEMANIAHD.png

    Video
    ID                          : 1
    Format                      : AVC
    Format/Info                 : Advanced Video Codec
    Format profile              : High@L4.1
    Format settings             : CABAC / 2 Ref Frames
    Format settings, CABAC      : Yes
    Format settings, Reference  : 2 frames
    Format settings, GOP        : M=1, N=5
    Codec ID                    : V_MPEG4/ISO/AVC
    Duration                    : 1 h 27 min
    Bit rate mode               : Variable
    Bit rate                    : 23.2 Mb/s
    Maximum bit rate            : 23.7 Mb/s
    Width                       : 1 920 pixels
    Height                      : 1 080 pixels
    Display aspect ratio        : 16:9
    Frame rate mode             : Constant
    Frame rate                  : 23.976 (24000/1001) FPS
    Color space                 : YUV
    Chroma subsampling          : 4:2:0
    Bit depth                   : 8 bits
    Scan type                   : Progressive
    Bits/(Pixel*Frame)          : 0.466
    Stream size                 : 14.1 GiB (86%)
    Title                       : REMUX HD1080p [CinemaniaHDD]
    Language                    : English
    Default                     : Yes
    Forced                      : Yes

    Audio #1
    ID                          : 2
    Format                      : AC-3
    Format/Info                 : Audio Coding 3
    Commercial name             : Dolby Digital
    Codec ID                    : A_AC3
    Duration                    : 1 h 27 min
    Bit rate mode               : Constant
    Bit rate                    : 640 kb/s
    Channel(s)                  : 6 channels
    Channel layout              : L R C LFE Ls Rs
    Sampling rate               : 48.0 kHz
    Frame rate                  : 31.250 FPS (1536 SPF)
    Compression mode            : Lossy
    Stream size                 : 400 MiB (2%)
    Title                       : Español Latino AC3 [CinemaniaHDD]
    Language                    : Spanish
    Service kind                : Complete Main
    Default                     : Yes
    Forced                      : Yes

    Audio #2
    ID                          : 3
    Format                      : E-AC-3
    Format/Info                 : Enhanced AC-3
    Commercial name             : Dolby Digital Plus
    Codec ID                    : A_EAC3
    Duration                    : 1 h 27 min
    Bit rate mode               : Constant
    Bit rate                    : 640 kb/s
    Channel(s)                  : 6 channels
    Channel layout              : L R C LFE Ls Rs
    Sampling rate               : 48.0 kHz
    Frame rate                  : 31.250 FPS (1536 SPF)
    Compression mode            : Lossy
    Stream size                 : 400 MiB (2%)
    Title                       : Español Latino EAC3 [CinemaniaHDD]
    Language                    : Spanish
    Service kind                : Complete Main
    Default                     : No
    Forced                      : No

    Audio #3
    ID                          : 4
    Format                      : DTS XLL
    Format/Info                 : Digital Theater Systems
    Commercial name             : DTS-HD Master Audio
    Codec ID                    : A_DTS
    Duration                    : 1 h 27 min
    Bit rate mode               : Variable
    Bit rate                    : 2 434 kb/s
    Channel(s)                  : 6 channels
    Channel layout              : C L R Ls Rs LFE
    Sampling rate               : 48.0 kHz
    Frame rate                  : 93.750 FPS (512 SPF)
    Bit depth                   : 16 bits
    Compression mode            : Lossless
    Stream size                 : 1.48 GiB (9%)
    Title                       : Ingles [CinemaniaHDD]
    Language                    : English
    Default                     : No
    Forced                      : No

    Text #1
    ID                          : 5
    Format                      : UTF-8
    Codec ID                    : S_TEXT/UTF8
    Codec ID/Info               : UTF-8 Plain Text
    Duration                    : 1 h 20 min
    Bit rate                    : 0 b/s
    Count of elements           : 15
    Stream size                 : 238 Bytes (0%)
    Title                       : Forzados-SRT [CinemaniaHDD]
    Language                    : Spanish
    Default                     : Yes
    Forced                      : Yes

    Text #2
    ID                          : 6
    Format                      : UTF-8
    Codec ID                    : S_TEXT/UTF8
    Codec ID/Info               : UTF-8 Plain Text
    Duration                    : 1 h 21 min
    Bit rate                    : 30 b/s
    Count of elements           : 577
    Stream size                 : 18.3 KiB (0%)
    Title                       : Español-SRT [CinemaniaHDD]
    Language                    : Spanish
    Default                     : No
    Forced                      : No

    Text #3
    ID                          : 7
    Format                      : UTF-8
    Codec ID                    : S_TEXT/UTF8
    Codec ID/Info               : UTF-8 Plain Text
    Duration                    : 1 h 22 min
    Bit rate                    : 33 b/s
    Count of elements           : 699
    Stream size                 : 20.5 KiB (0%)
    Title                       : Ingles [CinemaniaHDD]
    Language                    : English
    Default                     : No
    Forced                      : No

    Menu
    00:00:00.000                : Start
    00:01:23.825                : Lawless
    00:04:13.494                : Something is wrong
    00:06:26.713                : Doing 50
    00:08:27.512                : Funsch & Roedecker
    00:10:38.759                : Through the wormhole
    00:14:18.015                : Sentenced to life
    00:17:16.443                : Yulaw's escape
    00:18:57.751                : Rotten Ronnie
    00:20:42.986                : Venting rage
    00:24:35.053                : T.K.
    00:26:45.601                : He was me
    00:32:50.090                : Imaging Radiology attack
    00:36:33.524                : I don't want to hurt you
    00:38:35.192                : New procedure
    00:45:14.286                : Roedecker vs. Yulaw
    00:49:58.726                : Some people never learn
    00:54:04.107                : A little privacy
    00:55:27.000                : T.K.O.
    00:58:34.751                : The tools to terminate
    01:03:09.534                : Take cover!
    01:04:51.629                : Yulaw vs. Funsch
    01:06:20.188                : Gabe vs. Yulaw I
    01:09:35.496                : Gabe vs. Yulaw II
    01:13:25.016                : 30 seconds!
    01:14:22.032                : Sentence carried out
    01:17:41.648                : Back where he belongs
    01:18:55.123                : Stygian Penal Colony
    01:20:39.075                : End Credit

  • Peso: 16.4 GiB

Sinopsis

Descargar El Unico (2001) OPEN MATTE REMUX 1080p Latino. En un mundo futuro se ha descubierto que existen vidas alternas en universos alternos, un hecho que los agentes del Departamento Multiverse defienden, excepto el investigador Yulaw. Yulaw ha atravesado 123 universos persiguiendo y destruyendo sus vidas alternas. A medida que las mata, absorbe la fuerza de esas vidas alternas, ganando habilidades sobrehumanas. La magnitud de tal fenómeno puede desequilibrar el delicado equilibrio de todos los universos, sobre todo cuando a Yulaw ya sólo le queda eliminar a la última de sus vidas alternas. Ese personaje, Gabriel Yulaw, es agente de policía honesto y buen marido, y su vida se ve alterada cuando el otro Yulaw entra en su universo. Para salvarse a sí mismo, la única alternativa que le queda es la de matar a su yo malvado del otro universo.

Audio Español Latino EAC3 + AC3 5.1 NF – Ingles DTS-HD 5.1 Bluray

Ficha técnica

Video trailer de la película

Enlaces de descarga

Rip de Bluray

Descargar El Unico (2001) OPEN MATTE REMUX 1080p Latino-CMHDD


Aportes de DPeliculasHDmega la pass es:dpeliculashdmega.org Aportes de CinemaniaHD la pass es:cinemaniahdd.com Aportes recientes:cinemaniahdd.net
Guardado en : Acción , Ciencia ficción , Remux , Suspenso

Películas relacionadas

descargar El Unico (2001) OPEN MATTE REMUX 1080p Latino-CMHDD Full 1080p 1080p gratis, El Unico (2001) OPEN MATTE REMUX 1080p Latino-CMHDD Full 1080p mega 1 link, El Unico (2001) OPEN MATTE REMUX 1080p Latino-CMHDD Full 1080p pelicula completa, descargar El Unico (2001) OPEN MATTE REMUX 1080p Latino-CMHDD Full 1080p gratis en mega.

El Unico (2001) OPEN MATTE REMUX 1080p Latino-CMHDD pelicula full hd, El Unico (2001) OPEN MATTE REMUX 1080p Latino-CMHDD mega latino, El Unico (2001) OPEN MATTE REMUX 1080p Latino-CMHDD 4k latino, El Unico (2001) OPEN MATTE REMUX 1080p Latino-CMHDD pelicula completa, El Unico (2001) OPEN MATTE REMUX 1080p Latino-CMHDD descargar gratis, descargar El Unico (2001) OPEN MATTE REMUX 1080p Latino-CMHDD pelicula latino, El Unico (2001) OPEN MATTE REMUX 1080p Latino-CMHDD 1 link mega, El Unico (2001) OPEN MATTE REMUX 1080p Latino-CMHDD 1 link google drive, El Unico (2001) OPEN MATTE REMUX 1080p Latino-CMHDD hd 1080p latino.
Comentarios 0