The One and Only Ivan (2020) WEB-DL 4K-HDR 2160p Latino

15 vistas
1 estrella2 estrellas3 estrellas4 estrellas5 estrellas (1 votos, promedio: 5,00 de 5)
Cargando...

Información de The One and Only Ivan (2020) WEB-DL 4K-HDR 2160p Latino

Datos de la película

  • Calidad: 4K HDR
  • Audio: Se especifica abajo de la Sinopsis
  • Subtitulos: Español Latino SRT- FORZADOS SRT
  • Resolución: 3840x2160
  • Formato: MKV
  • Codec: H.265
  • Encoder: cinemaniahdd
  • Mediainfo: Clic para Mostrar Datos Ver
  • The One and Only Ivan (2020) WEB-DL 4K-HDR 2160p Latino [CNMNHDD].mkv
    Format                      : Matroska
    Format version              : Version 4
    File size                   : 11.1 GiB
    Duration                    : 1 h 35 min
    Overall bit rate            : 16.8 Mb/s
    Movie name                  : The One and Only Ivan (2020) 4K - CinemaniaHDD.Net
    Encoded date                : UTC 2020-10-17 04:02:38
    Writing application         : mkvmerge v51.0.0 ('I Wish') 64-bit
    Writing library             : libebml v1.4.0 + libmatroska v1.6.2

    Video
    ID                          : 1
    Format                      : HEVC
    Format/Info                 : High Efficiency Video Coding
    Format profile              : Main 10@L5@High
    HDR format                  : SMPTE ST 2086, HDR10 compatible
    Codec ID                    : V_MPEGH/ISO/HEVC
    Duration                    : 1 h 35 min
    Bit rate                    : 15.5 Mb/s
    Width                       : 3 840 pixels
    Height                      : 2 160 pixels
    Display aspect ratio        : 16:9
    Frame rate mode             : Constant
    Frame rate                  : 23.976 (24000/1001) FPS
    Color space                 : YUV
    Chroma subsampling          : 4:2:0
    Bit depth                   : 10 bits
    Bits/(Pixel*Frame)          : 0.078
    Stream size                 : 10.3 GiB (92%)
    Title                       : CinemaniaHDD
    Default                     : Yes
    Forced                      : No
    Color range                 : Limited
    Color primaries             : BT.2020
    Transfer characteristics    : PQ
    Matrix coefficients         : BT.2020 non-constant
    Mastering display color pri : Display P3
    Mastering display luminance : min: 0.0001 cd/m2, max: 1000 cd/m2

    Audio #1
    ID                          : 2
    Format                      : AC-3
    Format/Info                 : Audio Coding 3
    Commercial name             : Dolby Digital
    Codec ID                    : A_AC3
    Duration                    : 1 h 33 min
    Bit rate mode               : Constant
    Bit rate                    : 384 kb/s
    Channel(s)                  : 6 channels
    Channel layout              : L R C LFE Ls Rs
    Sampling rate               : 48.0 kHz
    Frame rate                  : 31.250 FPS (1536 SPF)
    Compression mode            : Lossy
    Stream size                 : 257 MiB (2%)
    Title                       : Español latino - AC3 [CinemaniaHDD]
    Language                    : Spanish
    Service kind                : Complete Main
    Default                     : Yes
    Forced                      : No

    Audio #2
    ID                          : 3
    Format                      : E-AC-3
    Format/Info                 : Enhanced AC-3
    Commercial name             : Dolby Digital Plus
    Codec ID                    : A_EAC3
    Duration                    : 1 h 33 min
    Bit rate mode               : Constant
    Bit rate                    : 256 kb/s
    Channel(s)                  : 6 channels
    Channel layout              : L R C LFE Ls Rs
    Sampling rate               : 48.0 kHz
    Frame rate                  : 31.250 FPS (1536 SPF)
    Compression mode            : Lossy
    Stream size                 : 171 MiB (1%)
    Title                       : Español latino - E-AC3 [CinemaniaHDD]
    Language                    : Spanish
    Service kind                : Complete Main
    Default                     : No
    Forced                      : No

    Audio #3
    ID                          : 4
    Format                      : E-AC-3
    Format/Info                 : Enhanced AC-3
    Commercial name             : Dolby Digital Plus
    Codec ID                    : A_EAC3
    Duration                    : 1 h 35 min
    Bit rate mode               : Constant
    Bit rate                    : 256 kb/s
    Channel(s)                  : 6 channels
    Channel layout              : L R C LFE Ls Rs
    Sampling rate               : 48.0 kHz
    Frame rate                  : 31.250 FPS (1536 SPF)
    Compression mode            : Lossy
    Stream size                 : 174 MiB (2%)
    Title                       : Inglés - E-AC3 [CinemaniaHDD]
    Language                    : English
    Service kind                : Complete Main
    Default                     : No
    Forced                      : No

    Audio #4
    ID                          : 5
    Format                      : AC-3
    Format/Info                 : Audio Coding 3
    Commercial name             : Dolby Digital
    Codec ID                    : A_AC3
    Duration                    : 1 h 35 min
    Bit rate mode               : Constant
    Bit rate                    : 384 kb/s
    Channel(s)                  : 6 channels
    Channel layout              : L R C LFE Ls Rs
    Sampling rate               : 48.0 kHz
    Frame rate                  : 31.250 FPS (1536 SPF)
    Compression mode            : Lossy
    Stream size                 : 262 MiB (2%)
    Title                       : Inglés - AC3 [CinemaniaHDD]
    Language                    : English
    Service kind                : Complete Main
    Default                     : No
    Forced                      : No

    Text #1
    ID                          : 6
    Format                      : UTF-8
    Codec ID                    : S_TEXT/UTF8
    Codec ID/Info               : UTF-8 Plain Text
    Duration                    : 1 h 32 min
    Bit rate                    : 1 b/s
    Count of elements           : 21
    Stream size                 : 1.05 KiB (0%)
    Title                       : Forzados [CinemaniaHDD]
    Language                    : Spanish
    Default                     : Yes
    Forced                      : Yes

    Text #2
    ID                          : 7
    Format                      : UTF-8
    Codec ID                    : S_TEXT/UTF8
    Codec ID/Info               : UTF-8 Plain Text
    Duration                    : 1 h 32 min
    Bit rate                    : 55 b/s
    Count of elements           : 1203
    Stream size                 : 37.6 KiB (0%)
    Title                       : Español latino [CinemaniaHDD]
    Language                    : Spanish
    Default                     : No
    Forced                      : No

    Text #3
    ID                          : 8
    Format                      : UTF-8
    Codec ID                    : S_TEXT/UTF8
    Codec ID/Info               : UTF-8 Plain Text
    Duration                    : 1 h 32 min
    Bit rate                    : 59 b/s
    Count of elements           : 1368
    Stream size                 : 40.6 KiB (0%)
    Title                       : Inglés [CinemaniaHDD]
    Language                    : English
    Default                     : No
    Forced                      : No

     

  • Peso: 11.1 GiB

Sinopsis

Ivan es un gorila de espalda plateada de 400 libras que comparte un hábitat comunal en un centro comercial suburbano con Stella el elefante, Bob el perro y varios otros animales. Tiene pocos recuerdos de la jungla donde fue capturado, pero cuando llega una cría de elefante llamada Ruby, toca algo profundo dentro de él. Ruby se separó recientemente de su familia en la naturaleza, lo que le hace cuestionar su vida, de dónde viene y dónde quiere estar en última instancia.

Español Latino E-AC3 5.1 + AC3 5.1 WEB-DL – Ingles E-AC3 5.1 + AC3 5.1 WEB-DL

Ficha técnica

Video trailer de la película

Enlaces de descarga

Rip de Bluray

Descargar The One and Only Ivan (2020) WEB-DL 4K-HDR 2160p Latino




Aportes de DPeliculasHDmega la pass es:dpeliculashdmega.org Aportes de CinemaniaHD la pass es:cinemaniahdd.com
Guardado en : 4K HDR , 4K UHD , Comedia , Drama , Familia

Películas relacionadas

  • Fuga De Pretoria (2020) HD 1080p Latino

    Fuga De Pretoria (2020) HD 1080p Latino

    2020
    Fuga De Pretoria (2020) HD 1080p Latino

    5.0 1h 42m 2020

    Descargar Fuga De Pretoria (2020) HD 1080p Latino. Sudáfrica, 1978. Tim Jenkin y Stephen Lee, dos activistas...

    Director: Wayne Nassereddine

    Género: Drama

    Actores: Vuyo Loko

  • Fuga De Pretoria (2020) PLACEBO Full HD 1080p Latino

    Fuga De Pretoria (2020) PLACEBO Full HD 1080p Latino

    2020
    Fuga De Pretoria (2020) PLACEBO Full HD 1080p Latino

    5.0 1h 42m 2020

    Descargar Fuga De Pretoria (2020) PLACEBO Full HD 1080p Latino. Sudáfrica, 1978. Tim Jenkin y Stephen...

    Director: Wayne Nassereddine

    Género: Drama

    Actores: Vuyo Loko

  • Fuga De Pretoria (2020) REMUX 1080p Latino

    Fuga De Pretoria (2020) REMUX 1080p Latino

    2020
    Fuga De Pretoria (2020) REMUX 1080p Latino

    5.0 1h 42m 2020

    Descargar Fuga De Pretoria (2020) REMUX 1080p Latino. Sudáfrica, 1978. Tim Jenkin y Stephen Lee, dos...

    Director: Wayne Nassereddine

    Género: Drama

    Actores: Vuyo Loko

  • Bulletproof 2 (2020) WEB-DL 1080p Latino

    Bulletproof 2 (2020) WEB-DL 1080p Latino

    2020
    Bulletproof 2 (2020) WEB-DL 1080p Latino

    5.0 1h 38m 2020

    El agente especial Jack Carter asume de mala gana la identidad del criminal Archie Moses para derrotar...

    Director: Don Michael Paul

    Género: Acción

    Actores: Tuks Tad Lungu

Comentarios 0