La Vieja Guardia (2020) 4K UHD HDR Web-DL Latino

199 vistas
1 estrella2 estrellas3 estrellas4 estrellas5 estrellas (Ninguna valoración todavía)
Cargando...

Información de La Vieja Guardia (2020) 4K UHD HDR Web-DL Latino

Datos de la película

  • Calidad: WEBDL
  • Audio: Español Latino AC3 5.1 Netflix - Ingles AC3 5.1 Netflix
  • Subtitulos: Español Latino SRT - Ingles SRT
  • Resolución: 3840x2160p
  • Formato: MKV
  • Codec: HEVC
  • Encoder: CinefiloCool
  • Mediainfo: Clic para Mostrar Datos Ver
  • La Vieja Guardia (2020) UHD HDR Web-DL Latino-CMHDD.mkv
    Format                      : Matroska
    Format version              : Version 4
    File size                   : 14.5 GiB
    Duration                    : 2 h 5 min
    Overall bit rate            : 16.6 Mb/s
    Movie name                  : The Old Guard (2020) CinemaniaHDD.Net
    Encoded date                : UTC 2020-07-22 03:17:20
    Writing application         : mkvmerge v46.0.0 ('No Deeper Escape') 64-bit
    Writing library             : libebml v1.3.10 + libmatroska v1.5.2
    Attachments                 : CINEMANIAHD.png

    Video
    ID                          : 1
    Format                      : HEVC
    Format/Info                 : High Efficiency Video Coding
    Format profile              : Main 10@L5@Main
    HDR format                  : SMPTE ST 2086, HDR10 compatible
    Codec ID                    : V_MPEGH/ISO/HEVC
    Duration                    : 2 h 4 min
    Bit rate                    : 15.6 Mb/s
    Width                       : 3 840 pixels
    Height                      : 2 160 pixels
    Display aspect ratio        : 16:9
    Frame rate mode             : Constant
    Frame rate                  : 24.000 FPS
    Color space                 : YUV
    Chroma subsampling          : 4:2:0 (Type 2)
    Bit depth                   : 10 bits
    Bits/(Pixel*Frame)          : 0.078
    Stream size                 : 13.5 GiB (93%)
    Title                       : Web 2160p HDR [CinemaniaHDD]
    Default                     : Yes
    Forced                      : Yes
    Color range                 : Limited
    Color primaries             : BT.2020
    Transfer characteristics    : PQ
    Matrix coefficients         : BT.2020 non-constant
    Mastering display color pri : Display P3
    Mastering display luminance : min: 0.0001 cd/m2, max: 1000 cd/m2
    Maximum Content Light Level : 738 cd/m2
    Maximum Frame-Average Light : 287 cd/m2

    Audio #1
    ID                          : 2
    Format                      : AC-3
    Format/Info                 : Audio Coding 3
    Commercial name             : Dolby Digital
    Codec ID                    : A_AC3
    Duration                    : 2 h 5 min
    Bit rate mode               : Constant
    Bit rate                    : 384 kb/s
    Channel(s)                  : 6 channels
    Channel layout              : L R C LFE Ls Rs
    Sampling rate               : 48.0 kHz
    Frame rate                  : 31.250 FPS (1536 SPF)
    Compression mode            : Lossy
    Stream size                 : 345 MiB (2%)
    Title                       : Español Latino [CinemaniaHDD]
    Language                    : Spanish
    Service kind                : Complete Main
    Default                     : Yes
    Forced                      : Yes

    Audio #2
    ID                          : 3
    Format                      : E-AC-3 JOC
    Format/Info                 : Enhanced AC-3 with Joint Object Coding
    Commercial name             : Dolby Digital Plus with Dolby Atmos
    Codec ID                    : A_EAC3
    Duration                    : 2 h 5 min
    Bit rate mode               : Constant
    Bit rate                    : 768 kb/s
    Channel(s)                  : 6 channels
    Channel layout              : L R C LFE Ls Rs
    Sampling rate               : 48.0 kHz
    Frame rate                  : 31.250 FPS (1536 SPF)
    Compression mode            : Lossy
    Stream size                 : 690 MiB (5%)
    Title                       : Ingles [CinemaniaHDD]
    Language                    : English
    Service kind                : Complete Main
    Default                     : No
    Forced                      : No
    Complexity index            : 16
    Number of dynamic objects   : 15
    Bed channel count           : 1 channel
    Bed channel configuration   : LFE

    Text #1
    ID                          : 4
    Format                      : UTF-8
    Codec ID                    : S_TEXT/UTF8
    Codec ID/Info               : UTF-8 Plain Text
    Duration                    : 1 h 55 min
    Bit rate                    : 0 b/s
    Count of elements           : 23
    Stream size                 : 507 Bytes (0%)
    Title                       : Forzados-SRT [CinemaniaHDD]
    Language                    : Spanish
    Default                     : Yes
    Forced                      : Yes

    Text #2
    ID                          : 5
    Format                      : UTF-8
    Codec ID                    : S_TEXT/UTF8
    Codec ID/Info               : UTF-8 Plain Text
    Duration                    : 2 h 3 min
    Bit rate                    : 32 b/s
    Count of elements           : 1126
    Stream size                 : 29.1 KiB (0%)
    Title                       : Español-SRT [CinemaniaHDD]
    Language                    : Spanish
    Default                     : No
    Forced                      : No

    Text #3
    ID                          : 6
    Format                      : UTF-8
    Codec ID                    : S_TEXT/UTF8
    Codec ID/Info               : UTF-8 Plain Text
    Duration                    : 1 h 56 min
    Bit rate                    : 40 b/s
    Count of elements           : 1280
    Stream size                 : 34.6 KiB (0%)
    Title                       : Ingles-SRT [CinemaniaHDD]
    Language                    : English
    Default                     : No
    Forced                      : No

  • Peso: 14.5 GiB

Sinopsis

Descargar La Vieja Guardia (2020) 4K UHD HDR Web-DL Latino. The Old Guard narra la historia de un pequeño grupo de mercenarios inmortales encubiertos, que deben luchar para mantener unido a su equipo cuando descubren la existencia de un nuevo tipo de ser inmortal y sus extraordinarias habilidades salen a la luz.

Ficha técnica

Video trailer de la película

Enlaces de descarga

Rip de Bluray

Descargar La Vieja Guardia (2020) 4K UHD HDR Web-DL Latino




Aportes de DPeliculasHDmega la pass es:dpeliculashdmega.org Aportes de CinemaniaHD la pass es:cinemaniahdd.com
Guardado en : 4K HDR , 4K UHD , Acción , Fantasía , Fantastico , Netflix

Películas relacionadas

  • 100% Lobo (2020) HD 1080p Latino

    100% Lobo (2020) HD 1080p Latino

    2020
    100% Lobo (2020) HD 1080p Latino

    0.0 1h 25m 2020

    Descargar 100% Lobo (2020) HD 1080p Latino. Freddy Lupin pertenece a una orgullosa familia de hombres...

    Director: Alexs Stadermann

    Género: Animación

    Actores: Samara Weaving

  • 100% Lobo (2020) PLACEBO Full HD 1080p Latino

    100% Lobo (2020) PLACEBO Full HD 1080p Latino

    2020
    100% Lobo (2020) PLACEBO Full HD 1080p Latino

    0.0 1h 25m 2020

    Descargar 100% Lobo (2020) PLACEBO Full HD 1080p Latino. Freddy Lupin pertenece a una orgullosa familia...

    Director: Alexs Stadermann

    Género: Animación

    Actores: Samara Weaving

  • 100% Lobo (2020) REMUX 1080p Latino

    100% Lobo (2020) REMUX 1080p Latino

    2020
    100% Lobo (2020) REMUX 1080p Latino

    0.0 1h 25m 2020

    Descargar 100% Lobo (2020) REMUX 1080p Latino. Freddy Lupin pertenece a una orgullosa familia de hombres...

    Director: Alexs Stadermann

    Género: Animación

    Actores: Samara Weaving

La Vieja Guardia (2020) 4K UHD HDR Web-DL Latino pelicula full hd, La Vieja Guardia (2020) 4K UHD HDR Web-DL Latino mega latino, La Vieja Guardia (2020) 4K UHD HDR Web-DL Latino 4k latino, La Vieja Guardia (2020) 4K UHD HDR Web-DL Latino pelicula completa, La Vieja Guardia (2020) 4K UHD HDR Web-DL Latino descargar gratis, descargar La Vieja Guardia (2020) 4K UHD HDR Web-DL Latino pelicula latino, La Vieja Guardia (2020) 4K UHD HDR Web-DL Latino 1 link mega, La Vieja Guardia (2020) 4K UHD HDR Web-DL Latino 1 link google drive, La Vieja Guardia (2020) 4K UHD HDR Web-DL Latino hd 1080p latino.
Comentarios 0