×

¿Problemas para descargar con Mozilla, EDGE? Deshabilita la opción "Abrir vinculos en una pestaña nueva" tal como lo muestra ésta imagen.

The Nutty Professor (1996) REMUX 1080p Latino – CMHDD

159 vistas

Información de The Nutty Professor (1996) REMUX 1080p Latino – CMHDD

Datos de la película

  • Calidad: Full 1080p
  • Audio: Español Latino DTS 2.0 BLURAY - Ingles DTS 5.1 BLURAY
  • Subtitulos: Español Latino PGS
  • Resolución: 1920x1080p
  • Formato: MKV
  • Codec: H.264
  • Encoder: Dracarys
  • Mediainfo: Clic para Mostrar Datos Ver
  • Format                      : Matroska
    Format version              : Version 4
    File size                   : 23.9 GiB
    Duration                    : 1 h 35 min
    Overall bit rate mode       : Variable
    Overall bit rate            : 36.0 Mb/s
    Movie name                  : The Nutty Professor (1996) REMUX 1080p Latino - CMHDD
    Encoded date                : UTC 2021-05-23 07:36:52
    Writing application         : mkvmerge v56.1.0 ('My Friend') 64-bit
    Writing library             : libebml v1.4.2 + libmatroska v1.6.4
    Cover                       : Yes
    Attachments                 : cover.jpg

    Video
    ID                          : 1
    ID in the original source m : 4113 (0x1011)
    Format                      : VC-1
    Format profile              : Advanced@L3
    Codec ID                    : V_MS/VFW/FOURCC / WVC1
    Codec ID/Hint               : Microsoft
    Duration                    : 1 h 35 min
    Bit rate                    : 31.4 Mb/s
    Width                       : 1 920 pixels
    Height                      : 1 080 pixels
    Display aspect ratio        : 16:9
    Frame rate mode             : Constant
    Frame rate                  : 23.976 (24000/1001) FPS
    Color space                 : YUV
    Chroma subsampling          : 4:2:0
    Bit depth                   : 8 bits
    Scan type                   : Progressive
    Compression mode            : Lossy
    Bits/(Pixel*Frame)          : 0.633
    Stream size                 : 20.9 GiB (87%)
    Default                     : Yes
    Forced                      : No
    Original source medium      : Blu-ray

    Audio #1
    ID                          : 2
    ID in the original source m : 4352 (0x1100)
    Format                      : DTS XLL
    Format/Info                 : Digital Theater Systems
    Commercial name             : DTS-HD Master Audio
    Codec ID                    : A_DTS
    Duration                    : 1 h 35 min
    Bit rate mode               : Variable
    Bit rate                    : 3 767 kb/s
    Channel(s)                  : 6 channels
    Channel layout              : C L R Ls Rs LFE
    Sampling rate               : 48.0 kHz
    Frame rate                  : 93.750 FPS (512 SPF)
    Bit depth                   : 24 bits
    Compression mode            : Lossless
    Stream size                 : 2.50 GiB (10%)
    Language                    : English
    Default                     : No
    Forced                      : No
    Original source medium      : Blu-ray

    Audio #2
    ID                          : 3
    ID in the original source m : 4353 (0x1101)
    Format                      : DTS
    Format/Info                 : Digital Theater Systems
    Codec ID                    : A_DTS
    Duration                    : 1 h 35 min
    Bit rate mode               : Constant
    Bit rate                    : 768 kb/s
    Channel(s)                  : 2 channels
    Channel layout              : Lt Rt
    Sampling rate               : 48.0 kHz
    Frame rate                  : 93.750 FPS (512 SPF)
    Bit depth                   : 24 bits
    Compression mode            : Lossy
    Stream size                 : 523 MiB (2%)
    Language                    : Spanish
    Default                     : Yes
    Forced                      : No
    Original source medium      : Blu-ray

    Text #1
    ID                          : 4
    ID in the original source m : 4609 (0x1201)
    Format                      : PGS
    Muxing mode                 : zlib
    Codec ID                    : S_HDMV/PGS
    Codec ID/Info               : Picture based subtitle format used on BDs/HD-DVDs
    Duration                    : 1 h 31 min
    Bit rate                    : 41.9 kb/s
    Count of elements           : 2739
    Stream size                 : 27.3 MiB (0%)
    Language                    : Spanish
    Default                     : No
    Forced                      : No
    Original source medium      : Blu-ray

    Text #2
    ID                          : 5
    ID in the original source m : 4611 (0x1203)
    Format                      : PGS
    Muxing mode                 : zlib
    Codec ID                    : S_HDMV/PGS
    Codec ID/Info               : Picture based subtitle format used on BDs/HD-DVDs
    Duration                    : 1 h 11 min
    Bit rate                    : 251 b/s
    Count of elements           : 12
    Stream size                 : 132 KiB (0%)
    Language                    : Spanish
    Default                     : No
    Forced                      : No
    Original source medium      : Blu-ray

    Menu
    00:00:00.000                : Chapter 01
    00:08:23.294                : Chapter 02
    00:11:31.440                : Chapter 03
    00:21:00.384                : Chapter 04
    00:26:03.853                : Chapter 05
    00:31:21.421                : Chapter 06
    00:33:43.855                : Chapter 07
    00:35:36.509                : Chapter 08
    00:38:03.823                : Chapter 09
    00:44:19.031                : Chapter 10
    00:51:10.984                : Chapter 11
    00:59:01.704                : Chapter 12
    01:07:39.388                : Chapter 13
    01:16:07.771                : Chapter 14
    01:23:18.785                : Chapter 15
    01:27:14.020                : Chapter 16

  • Peso: 23.9 GiB

Sinopsis

Mientras Sherman Klump, un profesor universitario de buen corazón pero extraordinariamente gordo, está realizando un importante estudio sobre la reestructuración del ADN, conoce a Carla, una nueva profesora, y se enamora de ella. Frustrado y acomplejado por su oronda apariencia, decide probar en sí mismo una revolucionaria fórmula para perder peso. Queda así transformado en el romántico Buddy Love, pero los contratiempos y complicaciones que surgirán entonces serán totalmente imprevisibles.

Ficha técnica

Video trailer de la película

Enlaces de descarga

Rip de Bluray

Descargar The Nutty Professor (1996) REMUX 1080p Latino – CMHDD


Aportes de DPeliculasHDmega la pass es:dpeliculashdmega.org Aportes de CinemaniaHD la pass es:cinemaniahdd.com

Películas relacionadas

  • DC Liga De Supermascotas (2022) HD 1080p Latino

    DC Liga De Supermascotas (2022) HD 1080p Latino

    2022
    DC Liga De Supermascotas (2022) HD 1080p Latino

    1h 45m 2022

    Descargar DC Liga De Supermascotas (2022) HD 1080p Latino. Krypto el Superperro y Superman son amigos...

    Director: Sam Levine

    Género: Acción

    Actores: Yvette Nicole Brown

  • Rick and Morty (2022) Temporada 6 WEB-DL 1080p Latino

    Rick and Morty (2022) Temporada 6 WEB-DL 1080p Latino

    2013
    Rick and Morty (2022) Temporada 6 WEB-DL 1080p Latino

    0h 22m 2013

    Comedia animada que narra las aventuras de un científico loco Rick Sánchez, que regresa después de...

    Director: Justin Roiland

    Género: Action & Adventure

    Actores: Spencer Grammer

  • Tremors (1990) REMUX 4K HDR Latino – CMHDD

    Tremors (1990) REMUX 4K HDR Latino – CMHDD

    1990
    Tremors (1990) REMUX 4K HDR Latino – CMHDD

    1h 35m 1990

    En Perfección, un pequeño pueblo al borde del desierto de Nevada, algo parece suceder debajo de la...

    Director: Susan Bierbaum

    Género: Acción

    Actores: Victor Wong

descargar The Nutty Professor (1996) REMUX 1080p Latino – CMHDD Full 1080p 1080p gratis, The Nutty Professor (1996) REMUX 1080p Latino – CMHDD Full 1080p mega 1 link, The Nutty Professor (1996) REMUX 1080p Latino – CMHDD Full 1080p pelicula completa, descargar The Nutty Professor (1996) REMUX 1080p Latino – CMHDD Full 1080p gratis en mega.

The Nutty Professor (1996) REMUX 1080p Latino – CMHDD pelicula full hd, The Nutty Professor (1996) REMUX 1080p Latino – CMHDD mega latino, The Nutty Professor (1996) REMUX 1080p Latino – CMHDD 4k latino, The Nutty Professor (1996) REMUX 1080p Latino – CMHDD pelicula completa, The Nutty Professor (1996) REMUX 1080p Latino – CMHDD descargar gratis, descargar The Nutty Professor (1996) REMUX 1080p Latino – CMHDD pelicula latino, The Nutty Professor (1996) REMUX 1080p Latino – CMHDD 1 link mega, The Nutty Professor (1996) REMUX 1080p Latino – CMHDD 1 link google drive, The Nutty Professor (1996) REMUX 1080p Latino – CMHDD hd 1080p latino.
Comentarios 0