×

¿Problemas para descargar con Mozilla, EDGE? Deshabilita la opción "Abrir vinculos en una pestaña nueva" tal como lo muestra ésta imagen.

La Monja (2018) REMUX 1080p Latino

567 vistas

Información de La Monja (2018) REMUX 1080p Latino

Datos de la película

  • Calidad: Full 1080p
  • Audio: Se especifica abajo de la Sinopsis
  • Subtitulos: Español Latino PGS - Ingles PGS
  • Resolución: 1920x1080p
  • Formato: MKV
  • Codec: H.264
  • Encoder: CinefiloCool
  • Mediainfo: Clic para Mostrar Datos Ver
  • La Monja (2018) REMUX 1080p Latino-CMHDD.mkv
    Format                      : Matroska
    Format version              : Version 4
    File size                   : 19.6 GiB
    Duration                    : 1 h 36 min
    Overall bit rate mode       : Variable
    Overall bit rate            : 29.0 Mb/s
    Movie name                  : The Nun (2018) CinemaniaHDD.Net
    Encoded date                : UTC 2023-09-25 04:15:45
    Writing application         : mkvmerge v56.1.0 ('My Friend') 64-bit
    Writing library             : libebml v1.4.2 + libmatroska v1.6.4
    Attachments                 : CINEMANIAHD.png

    Video
    ID                          : 1
    Format                      : AVC
    Format/Info                 : Advanced Video Codec
    Format profile              : High@L4.1
    Format settings             : CABAC / 4 Ref Frames
    Format settings, CABAC      : Yes
    Format settings, Reference  : 4 frames
    Codec ID                    : V_MPEG4/ISO/AVC
    Duration                    : 1 h 36 min
    Bit rate mode               : Variable
    Bit rate                    : 24.6 Mb/s
    Maximum bit rate            : 27.0 Mb/s
    Width                       : 1 920 pixels
    Height                      : 1 080 pixels
    Display aspect ratio        : 16:9
    Frame rate mode             : Constant
    Frame rate                  : 23.976 (24000/1001) FPS
    Color space                 : YUV
    Chroma subsampling          : 4:2:0
    Bit depth                   : 8 bits
    Scan type                   : Progressive
    Bits/(Pixel*Frame)          : 0.494
    Stream size                 : 16.6 GiB (85%)
    Title                       : REMUX HD1080p [CinemaniaHDD]
    Default                     : Yes
    Forced                      : No

    Audio #1
    ID                          : 2
    Format                      : AC-3
    Format/Info                 : Audio Coding 3
    Commercial name             : Dolby Digital
    Codec ID                    : A_AC3
    Duration                    : 1 h 36 min
    Bit rate mode               : Constant
    Bit rate                    : 640 kb/s
    Channel(s)                  : 6 channels
    Channel layout              : L R C LFE Ls Rs
    Sampling rate               : 48.0 kHz
    Frame rate                  : 31.250 FPS (1536 SPF)
    Compression mode            : Lossy
    Stream size                 : 442 MiB (2%)
    Title                       : Español Latino [CinemaniaHDD]
    Language                    : Spanish
    Service kind                : Complete Main
    Default                     : Yes
    Forced                      : No

    Audio #2
    ID                          : 3
    Format                      : MLP FBA 16-ch
    Format/Info                 : Meridian Lossless Packing FBA with 16-channel presentation
    Commercial name             : Dolby TrueHD with Dolby Atmos
    Codec ID                    : A_TRUEHD
    Duration                    : 1 h 36 min
    Bit rate mode               : Variable
    Bit rate                    : 3 272 kb/s
    Maximum bit rate            : 5 742 kb/s
    Channel(s)                  : 8 channels
    Channel layout              : L R C LFE Ls Rs Lb Rb
    Sampling rate               : 48.0 kHz
    Frame rate                  : 1 200.000 FPS (40 SPF)
    Compression mode            : Lossless
    Stream size                 : 2.21 GiB (11%)
    Title                       : Ingles [CinemaniaHDD]
    Language                    : English
    Default                     : No
    Forced                      : No
    Number of dynamic objects   : 11
    Bed channel count           : 1 channel
    Bed channel configuration   : LFE

    Audio #3
    ID                          : 4
    Format                      : AC-3
    Format/Info                 : Audio Coding 3
    Commercial name             : Dolby Digital
    Format settings             : Dolby Surround EX
    Codec ID                    : A_AC3
    Duration                    : 1 h 36 min
    Bit rate mode               : Constant
    Bit rate                    : 448 kb/s
    Channel(s)                  : 6 channels
    Channel layout              : L R C LFE Ls Rs
    Sampling rate               : 48.0 kHz
    Frame rate                  : 31.250 FPS (1536 SPF)
    Compression mode            : Lossy
    Stream size                 : 309 MiB (2%)
    Title                       : Ingles AC3 [CinemaniaHDD]
    Language                    : English
    Service kind                : Complete Main
    Default                     : No
    Forced                      : No

    Text #1
    ID                          : 5
    Format                      : PGS
    Muxing mode                 : zlib
    Codec ID                    : S_HDMV/PGS
    Codec ID/Info               : Picture based subtitle format used on BDs/HD-DVDs
    Duration                    : 1 h 35 min
    Bit rate                    : 18.2 kb/s
    Count of elements           : 1274
    Stream size                 : 12.4 MiB (0%)
    Title                       : Español-PGS [CinemaniaHDD]
    Language                    : Spanish
    Default                     : No
    Forced                      : No

    Text #2
    ID                          : 6
    Format                      : PGS
    Muxing mode                 : zlib
    Codec ID                    : S_HDMV/PGS
    Codec ID/Info               : Picture based subtitle format used on BDs/HD-DVDs
    Duration                    : 1 h 35 min
    Bit rate                    : 25.5 kb/s
    Count of elements           : 1885
    Stream size                 : 17.4 MiB (0%)
    Title                       : Ingles-PGS [CinemaniaHDD]
    Language                    : English
    Default                     : No
    Forced                      : No

    Text #3
    ID                          : 7
    Format                      : UTF-8
    Codec ID                    : S_TEXT/UTF8
    Codec ID/Info               : UTF-8 Plain Text
    Duration                    : 1 h 29 min
    Bit rate                    : 0 b/s
    Count of elements           : 12
    Stream size                 : 250 Bytes (0%)
    Title                       : Forzados-SRT [CinemaniaHDD]
    Language                    : Spanish
    Default                     : Yes
    Forced                      : Yes

    Text #4
    ID                          : 8
    Format                      : UTF-8
    Codec ID                    : S_TEXT/UTF8
    Codec ID/Info               : UTF-8 Plain Text
    Duration                    : 1 h 31 min
    Bit rate                    : 31 b/s
    Count of elements           : 761
    Stream size                 : 21.1 KiB (0%)
    Title                       : Español-SRT [CinemaniaHDD]
    Language                    : Spanish
    Default                     : No
    Forced                      : No

    Menu
    00:00:00.000                : Chapter 01
    00:08:42.772                : Chapter 02
    00:17:55.074                : Chapter 03
    00:29:17.506                : Chapter 04
    00:38:05.033                : Chapter 05
    00:48:49.802                : Chapter 06
    00:58:49.192                : Chapter 07
    01:09:16.944                : Chapter 08
    01:18:14.565                : Chapter 09
    01:24:18.637                : Chapter 10
    01:32:30.295                : Chapter 11

  • Peso: 19.6 GiB

Sinopsis

Descargar La Monja (2018) REMUX 1080p Latino. Cuando una joven monja se suicida en una abadía de clausura en Rumanía, un sacerdote experto en posesiones demoniacas y una novicia a punto de tomar sus votos, son enviados por el Vaticano para investigar. Juntos descubren el profano secreto de la orden. Arriesgando no solo sus propias vidas sino su fe y hasta sus almas, se enfrentan a una fuerza maléfica en forma de monja demoníaca, en una abadía que se convierte en un campo de batalla de horror entre los vivos y los condenados….

Audio Español Latino AC3 5.1 Bluray – Ingles TrueHD 7.1 + AC3 5.1 Bluray
RESUBIDA!!!

Ficha técnica

Video trailer de la película

Enlaces de descarga

Rip de Bluray

Descargar La Monja (2018) REMUX 1080p Latino




Aportes de DPeliculasHDmega la pass es:dpeliculashdmega.org Aportes de CinemaniaHD la pass es:cinemaniahdd.com Aportes recientes:cinemaniahdd.net
Guardado en : Misterio , Remux , Suspenso , Terror
Etiquetado en :

Películas relacionadas

  • Viviendo con mi ex (2006) REMUX 1080p Latino-CMHDD

    Viviendo con mi ex (2006) REMUX 1080p Latino-CMHDD

    2006
    Viviendo con mi ex (2006) REMUX 1080p Latino-CMHDD

    1h 46m 2006

    Descargar Viviendo con mi ex (2006) REMUX 1080p Latino-CMHDD. Relato sobre las consecuencias de una ruptura...

    Director: Todd Amateau

    Género: Comedia

    Actores: William Dick

  • Strictly Confidential (2024) WEB-DL 1080p Latino

    Strictly Confidential (2024) WEB-DL 1080p Latino

    2024
    Strictly Confidential (2024) WEB-DL 1080p Latino

    1h 28m 2024

    Descargar Strictly Confidential (2024) WEB-DL 1080p Latino. Una joven atormentada se ve atraída por...

    Director: Damian Hurley

    Género: Misterio

    Actores: Thomas Downey

  • La Otra Cara de Dorian (2023) WEB-DL 1080p Latino

    La Otra Cara de Dorian (2023) WEB-DL 1080p Latino

    2023
    La Otra Cara de Dorian (2023) WEB-DL 1080p Latino

    1h 40m 2023

    Descargar La Otra Cara de Dorian (2023) WEB-DL 1080p Latino. Una versión moderna del cuento de Oscar...

    Director: Richard John Taylor

    Género: Drama

    Actores: Triana Terry

  • La melodía del diablo (2023) WEB-DL 1080p Latino

    La melodía del diablo (2023) WEB-DL 1080p Latino

    2023
    La melodía del diablo (2023) WEB-DL 1080p Latino

    1h 35m 2023

    Descargar La melodía del diablo (2023) WEB-DL 1080p Latino. Una joven compositora se encuentra frente...

    Director: Erlingur Thoroddsen

    Género: Terror

    Actores: Salomé Chandler

descargar La Monja (2018) REMUX 1080p Latino Full 1080p 1080p gratis, La Monja (2018) REMUX 1080p Latino Full 1080p mega 1 link, La Monja (2018) REMUX 1080p Latino Full 1080p pelicula completa, descargar La Monja (2018) REMUX 1080p Latino Full 1080p gratis en mega.

La Monja (2018) REMUX 1080p Latino pelicula full hd, La Monja (2018) REMUX 1080p Latino mega latino, La Monja (2018) REMUX 1080p Latino 4k latino, La Monja (2018) REMUX 1080p Latino pelicula completa, La Monja (2018) REMUX 1080p Latino descargar gratis, descargar La Monja (2018) REMUX 1080p Latino pelicula latino, La Monja (2018) REMUX 1080p Latino 1 link mega, La Monja (2018) REMUX 1080p Latino 1 link google drive, La Monja (2018) REMUX 1080p Latino hd 1080p latino.
Comentarios 0