×

¿Problemas para descargar con Mozilla, EDGE? Deshabilita la opción "Abrir vinculos en una pestaña nueva" tal como lo muestra ésta imagen.

The Newsreader (2023) Temporada 2 DTVGO WEB-DL 1080p Latino

124 vistas

Información de The Newsreader (2023) Temporada 2 DTVGO WEB-DL 1080p Latino

Datos de la película

  • Calidad: 1080p
  • Audio: Español Latino AC3 2.0 WEB-DL - Ingles AC3 2.0 WEB-DL
  • Subtitulos: Español Latino SRT- FORZADOS SRT
  • Resolución: 1920x1080
  • Formato: MKV
  • Codec: H.264
  • Encoder: cinemaniahdd
  • Mediainfo: Clic para Mostrar Datos Ver
  • The Newsreader T02E01 DTVGO WEB-DL 1080p Latino [CNMNHDD].mkv
    Format                      : Matroska
    Format version              : Version 4
    File size                   : 2.52 GiB
    Duration                    : 53 min 43 s
    Overall bit rate            : 6 726 kb/s
    Movie name                  : The Newsreader S02E01 - Decisión 87 [1080p] - CinemaniaHDD.Net
    Encoded date                : UTC 2023-11-09 23:51:52
    Writing application         : mkvmerge v56.1.0 ('My Friend') 64-bit
    Writing library             : libebml v1.4.2 + libmatroska v1.6.4

    Video
    ID                          : 1
    Format                      : AVC
    Format/Info                 : Advanced Video Codec
    Format profile              : High@L4
    Format settings             : 1 Ref Frames
    Format settings, CABAC      : No
    Format settings, Reference  : 1 frame
    Codec ID                    : V_MPEG4/ISO/AVC
    Duration                    : 53 min 43 s
    Bit rate mode               : Constant
    Bit rate                    : 6 000 kb/s
    Width                       : 1 920 pixels
    Height                      : 1 080 pixels
    Display aspect ratio        : 16:9
    Frame rate mode             : Constant
    Frame rate                  : 29.970 (30000/1001) FPS
    Standard                    : Component
    Color space                 : YUV
    Chroma subsampling          : 4:2:0
    Bit depth                   : 8 bits
    Scan type                   : Progressive
    Bits/(Pixel*Frame)          : 0.097
    Stream size                 : 2.23 GiB (89%)
    Title                       : CinemaniaHDD
    Default                     : Yes
    Forced                      : No
    Color range                 : Limited
    Color primaries             : BT.601 NTSC
    Transfer characteristics    : BT.601
    Matrix coefficients         : BT.601

    Audio #1
    ID                          : 2
    Format                      : AC-3
    Format/Info                 : Audio Coding 3
    Commercial name             : Dolby Digital
    Codec ID                    : A_AC3
    Duration                    : 53 min 43 s
    Bit rate mode               : Constant
    Bit rate                    : 384 kb/s
    Channel(s)                  : 2 channels
    Channel layout              : L R
    Sampling rate               : 48.0 kHz
    Frame rate                  : 31.250 FPS (1536 SPF)
    Compression mode            : Lossy
    Stream size                 : 148 MiB (6%)
    Title                       : Español Latino [CinemaniaHDD]
    Language                    : Spanish
    Service kind                : Complete Main
    Default                     : Yes
    Forced                      : No

    Audio #2
    ID                          : 3
    Format                      : E-AC-3
    Format/Info                 : Enhanced AC-3
    Commercial name             : Dolby Digital Plus
    Codec ID                    : A_EAC3
    Duration                    : 53 min 43 s
    Bit rate mode               : Constant
    Bit rate                    : 192 kb/s
    Channel(s)                  : 2 channels
    Channel layout              : L R
    Sampling rate               : 48.0 kHz
    Frame rate                  : 31.250 FPS (1536 SPF)
    Compression mode            : Lossy
    Stream size                 : 73.8 MiB (3%)
    Title                       : Inglés [CinemaniaHDD]
    Language                    : English
    Service kind                : Complete Main
    Default                     : No
    Forced                      : No

    Audio #3
    ID                          : 4
    Format                      : E-AC-3
    Format/Info                 : Enhanced AC-3
    Commercial name             : Dolby Digital Plus
    Codec ID                    : A_EAC3
    Duration                    : 53 min 43 s
    Bit rate mode               : Constant
    Bit rate                    : 192 kb/s
    Channel(s)                  : 2 channels
    Channel layout              : L R
    Sampling rate               : 48.0 kHz
    Frame rate                  : 31.250 FPS (1536 SPF)
    Compression mode            : Lossy
    Stream size                 : 73.8 MiB (3%)
    Language                    : English
    Service kind                : Complete Main
    Default                     : No
    Forced                      : No

    Text #1
    ID                          : 5
    Format                      : UTF-8
    Codec ID                    : S_TEXT/UTF8
    Codec ID/Info               : UTF-8 Plain Text
    Duration                    : 46 min 15 s
    Bit rate                    : 0 b/s
    Count of elements           : 6
    Stream size                 : 146 Bytes (0%)
    Title                       : Forzados [CinemaniaHDD]
    Language                    : Spanish
    Default                     : Yes
    Forced                      : Yes

    Text #2
    ID                          : 6
    Format                      : UTF-8
    Codec ID                    : S_TEXT/UTF8
    Codec ID/Info               : UTF-8 Plain Text
    Duration                    : 52 min 1 s
    Bit rate                    : 85 b/s
    Count of elements           : 1034
    Stream size                 : 32.6 KiB (0%)
    Title                       : Español Latino [CinemaniaHDD]
    Language                    : Spanish
    Default                     : No
    Forced                      : No

     

  • Peso: 2.52 GiB C/U --- PRIMER CAPITULO AGREGADO

Sinopsis

Una relación poco convencional en un mundo en la cúspide del cambio; Un presentador de noticias estrella y un reportero ambicioso unen fuerzas en una sala de redacción despiadada de 1986, mientras se desarrollan acontecimientos que cambiarán sus vidas.

 

PRIMER CAPITULO AGREGADO

Ficha técnica

Video trailer de la película

Enlaces de descarga

Rip de Bluray

Descargar The Newsreader (2023) Temporada 2 DTVGO WEB-DL 1080p Latino




Aportes de DPeliculasHDmega la pass es:dpeliculashdmega.org Aportes de CinemaniaHD la pass es:cinemaniahdd.com Aportes recientes:cinemaniahdd.net
Guardado en : Drama , Series

Películas relacionadas

descargar The Newsreader (2023) Temporada 2 DTVGO WEB-DL 1080p Latino 1080p 1080p gratis, The Newsreader (2023) Temporada 2 DTVGO WEB-DL 1080p Latino 1080p mega 1 link, The Newsreader (2023) Temporada 2 DTVGO WEB-DL 1080p Latino 1080p serie completa, descargar The Newsreader (2023) Temporada 2 DTVGO WEB-DL 1080p Latino 1080p gratis en mega.

The Newsreader (2023) Temporada 2 DTVGO WEB-DL 1080p Latino pelicula full hd, The Newsreader (2023) Temporada 2 DTVGO WEB-DL 1080p Latino mega latino, The Newsreader (2023) Temporada 2 DTVGO WEB-DL 1080p Latino 4k latino, The Newsreader (2023) Temporada 2 DTVGO WEB-DL 1080p Latino pelicula completa, The Newsreader (2023) Temporada 2 DTVGO WEB-DL 1080p Latino descargar gratis, descargar The Newsreader (2023) Temporada 2 DTVGO WEB-DL 1080p Latino pelicula latino, The Newsreader (2023) Temporada 2 DTVGO WEB-DL 1080p Latino 1 link mega, The Newsreader (2023) Temporada 2 DTVGO WEB-DL 1080p Latino 1 link google drive, The Newsreader (2023) Temporada 2 DTVGO WEB-DL 1080p Latino hd 1080p latino.
Comentarios 0