The Naked Gun From the Files of Police Squad! (1988) REMUX 1080p Latino – CMHDD

32 vistas
1 estrella2 estrellas3 estrellas4 estrellas5 estrellas (Ninguna valoración todavía)
Cargando...

Información de The Naked Gun From the Files of Police Squad! (1988) REMUX 1080p Latino – CMHDD

Datos de la película

  • Calidad: Full 1080p
  • Audio: Español Latino AC3 2.0 BLURAY - Ingles DTS 5.1 BLURAY
  • Subtitulos: Español Latino PGS
  • Resolución: 1920x1080p
  • Formato: MKV
  • Codec: H.264
  • Encoder: Dracarys
  • Mediainfo: Clic para Mostrar Datos Ver
  • Format                      : Matroska
    Format version              : Version 4
    File size                   : 23.1 GiB
    Duration                    : 1 h 24 min
    Overall bit rate mode       : Variable
    Overall bit rate            : 39.0 Mb/s
    Movie name                  : The Naked Gun: From the Files of Police Squad! (1988) REMUX 1080p Latino - CMHDD
    Encoded date                : UTC 2021-10-14 00:14:14
    Writing application         : mkvmerge v17.0.0 ('Be Ur Friend') 64-bit
    Writing library             : libebml v1.3.5 + libmatroska v1.4.8

    Video
    ID                          : 1
    Format                      : AVC
    Format/Info                 : Advanced Video Codec
    Format profile              : High@L4.1
    Format settings             : CABAC / 4 Ref Frames
    Format settings, CABAC      : Yes
    Format settings, Reference  : 4 frames
    Codec ID                    : V_MPEG4/ISO/AVC
    Duration                    : 1 h 24 min
    Bit rate mode               : Variable
    Bit rate                    : 35.8 Mb/s
    Maximum bit rate            : 39.0 Mb/s
    Width                       : 1 920 pixels
    Height                      : 1 080 pixels
    Display aspect ratio        : 16:9
    Frame rate mode             : Constant
    Frame rate                  : 23.976 (24000/1001) FPS
    Color space                 : YUV
    Chroma subsampling          : 4:2:0
    Bit depth                   : 8 bits
    Scan type                   : Progressive
    Bits/(Pixel*Frame)          : 0.721
    Stream size                 : 21.3 GiB (92%)
    Default                     : Yes
    Forced                      : No

    Audio #1
    ID                          : 2
    Format                      : DTS XLL
    Format/Info                 : Digital Theater Systems
    Commercial name             : DTS-HD Master Audio
    Codec ID                    : A_DTS
    Duration                    : 1 h 24 min
    Bit rate mode               : Variable
    Bit rate                    : 2 877 kb/s
    Channel(s)                  : 6 channels
    Channel layout              : C L R Ls Rs LFE
    Sampling rate               : 48.0 kHz
    Frame rate                  : 93.750 FPS (512 SPF)
    Bit depth                   : 24 bits
    Compression mode            : Lossless
    Stream size                 : 1.71 GiB (7%)
    Language                    : English
    Default                     : No
    Forced                      : No

    Audio #2
    ID                          : 3
    Format                      : AC-3
    Format/Info                 : Audio Coding 3
    Commercial name             : Dolby Digital
    Codec ID                    : A_AC3
    Duration                    : 1 h 24 min
    Bit rate mode               : Constant
    Bit rate                    : 224 kb/s
    Channel(s)                  : 2 channels
    Channel layout              : L R
    Sampling rate               : 48.0 kHz
    Frame rate                  : 31.250 FPS (1536 SPF)
    Compression mode            : Lossy
    Stream size                 : 136 MiB (1%)
    Language                    : Spanish
    Service kind                : Complete Main
    Default                     : Yes
    Forced                      : No

    Text #1
    ID                          : 4
    Format                      : PGS
    Muxing mode                 : zlib
    Codec ID                    : S_HDMV/PGS
    Codec ID/Info               : Picture based subtitle format used on BDs/HD-DVDs
    Duration                    : 1 h 20 min
    Bit rate                    : 53.9 kb/s
    Count of elements           : 2020
    Stream size                 : 31.2 MiB (0%)
    Language                    : Spanish
    Default                     : No
    Forced                      : No

    Text #2
    ID                          : 5
    Format                      : PGS
    Muxing mode                 : zlib
    Codec ID                    : S_HDMV/PGS
    Codec ID/Info               : Picture based subtitle format used on BDs/HD-DVDs
    Duration                    : 1 h 3 min
    Bit rate                    : 1 328 b/s
    Count of elements           : 54
    Stream size                 : 619 KiB (0%)
    Language                    : Spanish
    Default                     : No
    Forced                      : No

    Menu
    00:00:00.000                : en:Chapter 1
    00:03:10.773                : en:Chapter 2
    00:05:10.059                : en:Chapter 3
    00:07:33.744                : en:Chapter 4
    00:09:59.056                : en:Chapter 5
    00:13:25.012                : en:Chapter 6
    00:15:57.456                : en:Chapter 7
    00:17:55.199                : en:Chapter 8
    00:21:34.626                : en:Chapter 9
    00:25:16.723                : en:Chapter 10
    00:28:36.756                : en:Chapter 11
    00:31:06.072                : en:Chapter 12
    00:35:05.186                : en:Chapter 13
    00:41:12.887                : en:Chapter 14
    00:43:14.550                : en:Chapter 15
    00:48:13.640                : en:Chapter 16
    00:51:55.362                : en:Chapter 17
    00:53:22.908                : en:Chapter 18
    00:57:28.653                : en:Chapter 19
    00:59:45.707                : en:Chapter 20
    01:04:32.618                : en:Chapter 21
    01:09:24.493                : en:Chapter 22
    01:11:46.593                : en:Chapter 23
    01:14:23.459                : en:Chapter 24
    01:16:52.649                : en:Chapter 25
    01:18:39.256                : en:Chapter 26
    01:21:51.406                : en:Chapter 27

  • Peso: 23.1 GiB

Sinopsis

Después de que su compañero Nordberg fuera tiroteado por una banda de narcotraficantes, el incompetente teniente Frank Drebin busca al jefe de la organización para vengarse. Sospecha del magnate naviero Vincent Ludwig, pero no tiene pruebas para inculparlo. Tendrá incluso que enfrentarse a una alcaldesa, que trata de obstaculizar su investigación. Sin embargo, Drebin consigue la inesperada ayuda de Jane Spencer, una antigua novia de Ludwig.

Ficha técnica

Video trailer de la película

Enlaces de descarga

Rip de Bluray

Descargar The Naked Gun From the Files of Police Squad! (1988) REMUX 1080p Latino – CMHDD


Aportes de DPeliculasHDmega la pass es:dpeliculashdmega.org Aportes de CinemaniaHD la pass es:cinemaniahdd.com
Guardado en : Comedia , Crimen

Películas relacionadas

The Naked Gun From the Files of Police Squad! (1988) REMUX 1080p Latino – CMHDD pelicula full hd, The Naked Gun From the Files of Police Squad! (1988) REMUX 1080p Latino – CMHDD mega latino, The Naked Gun From the Files of Police Squad! (1988) REMUX 1080p Latino – CMHDD 4k latino, The Naked Gun From the Files of Police Squad! (1988) REMUX 1080p Latino – CMHDD pelicula completa, The Naked Gun From the Files of Police Squad! (1988) REMUX 1080p Latino – CMHDD descargar gratis, descargar The Naked Gun From the Files of Police Squad! (1988) REMUX 1080p Latino – CMHDD pelicula latino, The Naked Gun From the Files of Police Squad! (1988) REMUX 1080p Latino – CMHDD 1 link mega, The Naked Gun From the Files of Police Squad! (1988) REMUX 1080p Latino – CMHDD 1 link google drive, The Naked Gun From the Files of Police Squad! (1988) REMUX 1080p Latino – CMHDD hd 1080p latino.