×

¿Problemas para descargar con Mozilla, EDGE? Deshabilita la opción "Abrir vinculos en una pestaña nueva" tal como lo muestra ésta imagen.

The Mummy Returns (2001) REMUX 1080p Latino – CMHDD

177 vistas

Información de The Mummy Returns (2001) REMUX 1080p Latino – CMHDD

Datos de la película

  • Calidad: Full 1080p
  • Audio: Español Latino DTS 5.1 BLURAY - Ingles DTS 5.1 BLURAY
  • Subtitulos: Español Latino PGS
  • Resolución: 1920x1080p
  • Formato: MKV
  • Codec: H.264
  • Encoder: Dracarys
  • Mediainfo: Clic para Mostrar Datos Ver
  • Format                      : Matroska
    Format version              : Version 4
    File size                   : 25.7 GiB
    Duration                    : 2 h 9 min
    Overall bit rate mode       : Variable
    Overall bit rate            : 28.4 Mb/s
    Movie name                  : The Mummy Returns (2001) REMUX 1080p Latino - CMHDD
    Encoded date                : UTC 2023-06-06 23:44:53
    Writing application         : mkvmerge v47.0.0 ('Black Flag') 64-bit
    Writing library             : libebml v1.3.10 + libmatroska v1.5.2
    Cover                       : Yes
    Attachments                 : cover.jpg

    Video
    ID                          : 1
    ID in the original source m : 4113 (0x1011)
    Format                      : VC-1
    Format profile              : Advanced@L3
    Codec ID                    : V_MS/VFW/FOURCC / WVC1
    Codec ID/Hint               : Microsoft
    Duration                    : 2 h 9 min
    Bit rate                    : 23.1 Mb/s
    Width                       : 1 920 pixels
    Height                      : 1 080 pixels
    Display aspect ratio        : 16:9
    Frame rate mode             : Constant
    Frame rate                  : 23.976 (24000/1001) FPS
    Color space                 : YUV
    Chroma subsampling          : 4:2:0
    Bit depth                   : 8 bits
    Scan type                   : Progressive
    Compression mode            : Lossy
    Bits/(Pixel*Frame)          : 0.464
    Stream size                 : 20.9 GiB (81%)
    Default                     : Yes
    Forced                      : No
    Original source medium      : Blu-ray

    Audio #1
    ID                          : 2
    ID in the original source m : 4352 (0x1100)
    Format                      : DTS XLL
    Format/Info                 : Digital Theater Systems
    Commercial name             : DTS-HD Master Audio
    Codec ID                    : A_DTS
    Duration                    : 2 h 9 min
    Bit rate mode               : Variable
    Bit rate                    : 4 553 kb/s
    Channel(s)                  : 6 channels
    Channel layout              : C L R Ls Rs LFE
    Sampling rate               : 48.0 kHz
    Frame rate                  : 93.750 FPS (512 SPF)
    Bit depth                   : 24 bits
    Compression mode            : Lossless
    Stream size                 : 4.12 GiB (16%)
    Language                    : English
    Default                     : No
    Forced                      : No
    Original source medium      : Blu-ray

    Audio #2
    ID                          : 3
    ID in the original source m : 4353 (0x1101)
    Format                      : DTS
    Format/Info                 : Digital Theater Systems
    Codec ID                    : A_DTS
    Duration                    : 2 h 9 min
    Bit rate mode               : Constant
    Bit rate                    : 768 kb/s
    Channel(s)                  : 6 channels
    Channel layout              : C L R Ls Rs LFE
    Sampling rate               : 48.0 kHz
    Frame rate                  : 93.750 FPS (512 SPF)
    Bit depth                   : 24 bits
    Compression mode            : Lossy
    Stream size                 : 712 MiB (3%)
    Language                    : Spanish
    Default                     : Yes
    Forced                      : No
    Original source medium      : Blu-ray

    Text #1
    ID                          : 4
    ID in the original source m : 4609 (0x1201)
    Format                      : PGS
    Muxing mode                 : zlib
    Codec ID                    : S_HDMV/PGS
    Codec ID/Info               : Picture based subtitle format used on BDs/HD-DVDs
    Duration                    : 2 h 1 min
    Bit rate                    : 22.3 kb/s
    Frame rate                  : 0.269 FPS
    Count of elements           : 1957
    Stream size                 : 19.4 MiB (0%)
    Language                    : Spanish
    Default                     : No
    Forced                      : No
    Original source medium      : Blu-ray

    Text #2
    ID                          : 5
    ID in the original source m : 4611 (0x1203)
    Format                      : PGS
    Muxing mode                 : zlib
    Codec ID                    : S_HDMV/PGS
    Codec ID/Info               : Picture based subtitle format used on BDs/HD-DVDs
    Duration                    : 1 h 56 min
    Bit rate                    : 1 929 b/s
    Frame rate                  : 0.031 FPS
    Count of elements           : 218
    Stream size                 : 1.61 MiB (0%)
    Language                    : Spanish
    Default                     : No
    Forced                      : No
    Original source medium      : Blu-ray

    Menu
    00:00:00.000                : en:Capítulo 01
    00:04:41.489                : en:Capítulo 02
    00:10:03.519                : en:Capítulo 03
    00:13:33.395                : en:Capítulo 04
    00:17:03.897                : en:Capítulo 05
    00:23:20.774                : en:Capítulo 06
    00:26:17.158                : en:Capítulo 07
    00:35:25.248                : en:Capítulo 08
    00:42:01.685                : en:Capítulo 09
    00:46:51.725                : en:Capítulo 10
    00:56:03.151                : en:Capítulo 11
    01:06:37.410                : en:Capítulo 12
    01:17:00.657                : en:Capítulo 13
    01:27:33.665                : en:Capítulo 14
    01:35:27.638                : en:Capítulo 15
    01:42:44.074                : en:Capítulo 16
    01:47:43.790                : en:Capítulo 17
    01:51:20.840                : en:Capítulo 18
    01:53:26.382                : en:Capítulo 19
    02:01:49.176                : en:Capítulo 20

  • Peso: 25.7 GiB

Sinopsis

Han pasado diez años, Rick O’Connell se ha casado con Evelyn, y ambos son padres del pequeño Alex, de ocho años. Cuando, tras una serie de acontecimientos, la momia del antiguo sacerdote egipcio Im-Ho-Tep es resucitada por una extraña secta en el British Museum, y la maldición milenaria del Rey Escorpión -que seis mil años atrás traicionó al dios Anubis- lo devuelve a la vida, el choque entre ambas fuerzas malignas desencadenará el caos en el mundo… si Rick y Evelyn no consiguen evitarlo.

Ficha técnica

Video trailer de la película

Enlaces de descarga

Rip de Bluray

Descargar The Mummy Returns (2001) REMUX 1080p Latino – CMHDD


Aportes de DPeliculasHDmega la pass es:dpeliculashdmega.org Aportes de CinemaniaHD la pass es:cinemaniahdd.com Aportes recientes:cinemaniahdd.net
Guardado en : Acción , Aventura , Fantasía

Películas relacionadas

descargar The Mummy Returns (2001) REMUX 1080p Latino – CMHDD Full 1080p 1080p gratis, The Mummy Returns (2001) REMUX 1080p Latino – CMHDD Full 1080p mega 1 link, The Mummy Returns (2001) REMUX 1080p Latino – CMHDD Full 1080p pelicula completa, descargar The Mummy Returns (2001) REMUX 1080p Latino – CMHDD Full 1080p gratis en mega.

The Mummy Returns (2001) REMUX 1080p Latino – CMHDD pelicula full hd, The Mummy Returns (2001) REMUX 1080p Latino – CMHDD mega latino, The Mummy Returns (2001) REMUX 1080p Latino – CMHDD 4k latino, The Mummy Returns (2001) REMUX 1080p Latino – CMHDD pelicula completa, The Mummy Returns (2001) REMUX 1080p Latino – CMHDD descargar gratis, descargar The Mummy Returns (2001) REMUX 1080p Latino – CMHDD pelicula latino, The Mummy Returns (2001) REMUX 1080p Latino – CMHDD 1 link mega, The Mummy Returns (2001) REMUX 1080p Latino – CMHDD 1 link google drive, The Mummy Returns (2001) REMUX 1080p Latino – CMHDD hd 1080p latino.
Comentarios 0