×

¿Problemas para descargar con Mozilla, EDGE? Deshabilita la opción "Abrir vinculos en una pestaña nueva" tal como lo muestra ésta imagen.

The Mummy (1999) REMUX 4K HDR Latino – CMHDD

249 vistas

Información de The Mummy (1999) REMUX 4K HDR Latino – CMHDD

Datos de la película

  • Calidad: 4K HDR
  • Audio: Español Latino DTS 5.1 BLURAY - Ingles DTS-HD Master 7.1 BLURAY
  • Subtitulos: Español Latino PGS
  • Resolución: 3840x2160p
  • Formato: MKV
  • Codec: H.264
  • Encoder: Dracarys
  • Mediainfo: Clic para Mostrar Datos Ver
  • Format                      : Matroska
    Format version              : Version 4
    File size                   : 55.7 GiB
    Duration                    : 2 h 4 min
    Overall bit rate mode       : Variable
    Overall bit rate            : 63.9 Mb/s
    Movie name                  : The Mummy (1999) REMUX 4K HDR Latino - CMHDD
    Encoded date                : UTC 2023-05-03 03:23:25
    Writing application         : mkvmerge v47.0.0 ('Black Flag') 64-bit
    Writing library             : libebml v1.3.10 + libmatroska v1.5.2

    Video
    ID                          : 1
    ID in the original source m : 4113 (0x1011)
    Format                      : HEVC
    Format/Info                 : High Efficiency Video Coding
    Format profile              : Main 10@L5.1@High
    HDR format                  : SMPTE ST 2086, HDR10 compatible
    Codec ID                    : V_MPEGH/ISO/HEVC
    Duration                    : 2 h 4 min
    Bit rate                    : 55.0 Mb/s
    Width                       : 3 840 pixels
    Height                      : 2 160 pixels
    Display aspect ratio        : 16:9
    Frame rate mode             : Constant
    Frame rate                  : 23.976 (24000/1001) FPS
    Color space                 : YUV
    Chroma subsampling          : 4:2:0 (Type 2)
    Bit depth                   : 10 bits
    Bits/(Pixel*Frame)          : 0.276
    Stream size                 : 47.9 GiB (86%)
    Language                    : English
    Default                     : No
    Forced                      : No
    Color range                 : Limited
    Color primaries             : BT.2020
    Transfer characteristics    : PQ
    Matrix coefficients         : BT.2020 non-constant
    Mastering display color pri : Display P3
    Mastering display luminance : min: 0.0000 cd/m2, max: 1000 cd/m2
    Maximum Content Light Level : 1033 cd/m2
    Maximum Frame-Average Light : 345 cd/m2
    Original source medium      : Blu-ray

    Audio #1
    ID                          : 2
    ID in the original source m : 4352 (0x1100)
    Format                      : DTS XLL X
    Format/Info                 : Digital Theater Systems
    Commercial name             : DTS-HD Master Audio
    Codec ID                    : A_DTS
    Duration                    : 2 h 4 min
    Bit rate mode               : Variable
    Bit rate                    : 7 482 kb/s
    Channel(s)                  : 8 channels
    Channel(s)_Original         : Object Based
    ChannelLayout_Original      : Object Based
    Sampling rate               : 48.0 kHz
    Frame rate                  : 93.750 FPS (512 SPF)
    Bit depth                   : 24 bits
    Stream size                 : 6.52 GiB (12%)
    Title                       : DTS-X 7.1
    Language                    : English
    Default                     : No
    Forced                      : No
    Original source medium      : Blu-ray

    Audio #2
    ID                          : 3
    Format                      : AC-3
    Format/Info                 : Audio Coding 3
    Commercial name             : Dolby Digital
    Codec ID                    : A_AC3
    Duration                    : 2 h 4 min
    Bit rate mode               : Constant
    Bit rate                    : 640 kb/s
    Channel(s)                  : 6 channels
    Channel layout              : L R C LFE Ls Rs
    Sampling rate               : 48.0 kHz
    Frame rate                  : 31.250 FPS (1536 SPF)
    Compression mode            : Lossy
    Stream size                 : 571 MiB (1%)
    Title                       : DD 5.1
    Language                    : English
    Service kind                : Complete Main
    Default                     : No
    Forced                      : No

    Audio #3
    ID                          : 4
    ID in the original source m : 4354 (0x1102)
    Format                      : DTS
    Format/Info                 : Digital Theater Systems
    Codec ID                    : A_DTS
    Duration                    : 2 h 4 min
    Bit rate mode               : Constant
    Bit rate                    : 768 kb/s
    Channel(s)                  : 6 channels
    Channel layout              : C L R Ls Rs LFE
    Sampling rate               : 48.0 kHz
    Frame rate                  : 93.750 FPS (512 SPF)
    Bit depth                   : 24 bits
    Compression mode            : Lossy
    Stream size                 : 686 MiB (1%)
    Title                       : DTS 5.1
    Language                    : Spanish
    Default                     : Yes
    Forced                      : No
    Original source medium      : Blu-ray

    Text #1
    ID                          : 5
    ID in the original source m : 4769 (0x12A1)
    Format                      : PGS
    Muxing mode                 : zlib
    Codec ID                    : S_HDMV/PGS
    Codec ID/Info               : Picture based subtitle format used on BDs/HD-DVDs
    Duration                    : 1 h 55 min
    Bit rate                    : 20.0 kb/s
    Frame rate                  : 0.293 FPS
    Count of elements           : 2028
    Stream size                 : 16.5 MiB (0%)
    Language                    : Spanish
    Default                     : No
    Forced                      : No
    Original source medium      : Blu-ray

    Text #2
    ID                          : 6
    ID in the original source m : 4771 (0x12A3)
    Format                      : PGS
    Muxing mode                 : zlib
    Codec ID                    : S_HDMV/PGS
    Codec ID/Info               : Picture based subtitle format used on BDs/HD-DVDs
    Duration                    : 1 h 48 min
    Bit rate                    : 744 b/s
    Frame rate                  : 0.013 FPS
    Count of elements           : 86
    Stream size                 : 590 KiB (0%)
    Title                       : FORCED
    Language                    : Spanish
    Default                     : Yes
    Forced                      : No
    Original source medium      : Blu-ray

    Menu
    00:00:00.000                : en:Chapter 01
    00:07:10.721                : en:Chapter 02
    00:12:19.363                : en:Chapter 03
    00:23:19.940                : en:Chapter 04
    00:29:02.949                : en:Chapter 05
    00:36:46.120                : en:Chapter 06
    00:43:38.532                : en:Chapter 07
    00:49:06.610                : en:Chapter 08
    00:53:33.543                : en:Chapter 09
    00:57:29.404                : en:Chapter 10
    01:11:13.352                : en:Chapter 11
    01:18:48.306                : en:Chapter 12
    01:27:29.410                : en:Chapter 13
    01:30:03.731                : en:Chapter 14
    01:36:32.870                : en:Chapter 15
    01:43:58.023                : en:Chapter 16
    01:49:44.661                : en:Chapter 17
    01:56:51.504                : en:Chapter 18

  • Peso: 55.7 GiB

Sinopsis

El legionario Rick O’Connell y su socio descubren durante una batalla en Egipto las ruinas de Hamunaptra, la ciudad de los muertos. Pasado un tiempo, este descubrimiento le permitirá salvar su vida y volver al lugar con una egiptóloga y su hermano, donde coinciden con un grupo de americanos. Todos ellos, seducidos por la aventura, provocarán la resurrección de la momia de un diabólico sacerdote egipcio que intenta desesperadamente recuperar a su amada.

Ficha técnica

Video trailer de la película

Enlaces de descarga

Rip de Bluray

Descargar The Mummy (1999) REMUX 4K HDR Latino – CMHDD


Aportes de DPeliculasHDmega la pass es:dpeliculashdmega.org Aportes de CinemaniaHD la pass es:cinemaniahdd.com Aportes recientes:cinemaniahdd.net
Guardado en : Acción , Aventura , Fantasía

Películas relacionadas

descargar The Mummy (1999) REMUX 4K HDR Latino – CMHDD 4K HDR 1080p gratis, The Mummy (1999) REMUX 4K HDR Latino – CMHDD 4K HDR mega 1 link, The Mummy (1999) REMUX 4K HDR Latino – CMHDD 4K HDR pelicula completa, descargar The Mummy (1999) REMUX 4K HDR Latino – CMHDD 4K HDR gratis en mega.

The Mummy (1999) REMUX 4K HDR Latino – CMHDD pelicula full hd, The Mummy (1999) REMUX 4K HDR Latino – CMHDD mega latino, The Mummy (1999) REMUX 4K HDR Latino – CMHDD 4k latino, The Mummy (1999) REMUX 4K HDR Latino – CMHDD pelicula completa, The Mummy (1999) REMUX 4K HDR Latino – CMHDD descargar gratis, descargar The Mummy (1999) REMUX 4K HDR Latino – CMHDD pelicula latino, The Mummy (1999) REMUX 4K HDR Latino – CMHDD 1 link mega, The Mummy (1999) REMUX 4K HDR Latino – CMHDD 1 link google drive, The Mummy (1999) REMUX 4K HDR Latino – CMHDD hd 1080p latino.
Comentarios 0