×

¿Problemas para descargar con Mozilla, EDGE? Deshabilita la opción "Abrir vinculos en una pestaña nueva" tal como lo muestra ésta imagen.

The Mummy (1999) REMUX 1080p Latino – CMHDD

171 vistas

Información de The Mummy (1999) REMUX 1080p Latino – CMHDD

Datos de la película

  • Calidad: Full 1080p
  • Audio: Español Latino DTS 5.1 BLURAY - Ingles DTS 5.1 BLURAY
  • Subtitulos: Español Latino PGS
  • Resolución: 1920x1080p
  • Formato: MKV
  • Codec: H.264
  • Encoder: Dracarys
  • Mediainfo: Clic para Mostrar Datos Ver
  • Format                      : Matroska
    Format version              : Version 4
    File size                   : 25.1 GiB
    Duration                    : 2 h 4 min
    Overall bit rate mode       : Variable
    Overall bit rate            : 28.7 Mb/s
    Movie name                  : The Mummy (1999) REMUX 1080p Latino - CMHDD
    Encoded date                : UTC 2023-06-06 23:29:53
    Writing application         : mkvmerge v47.0.0 ('Black Flag') 64-bit
    Writing library             : libebml v1.3.10 + libmatroska v1.5.2
    Cover                       : Yes
    Attachments                 : cover.jpg

    Video
    ID                          : 1
    ID in the original source m : 4113 (0x1011)
    Format                      : VC-1
    Format profile              : Advanced@L3
    Codec ID                    : V_MS/VFW/FOURCC / WVC1
    Codec ID/Hint               : Microsoft
    Duration                    : 2 h 4 min
    Bit rate                    : 23.3 Mb/s
    Width                       : 1 920 pixels
    Height                      : 1 080 pixels
    Display aspect ratio        : 16:9
    Frame rate mode             : Constant
    Frame rate                  : 23.976 (24000/1001) FPS
    Color space                 : YUV
    Chroma subsampling          : 4:2:0
    Bit depth                   : 8 bits
    Scan type                   : Progressive
    Compression mode            : Lossy
    Bits/(Pixel*Frame)          : 0.469
    Stream size                 : 20.3 GiB (81%)
    Default                     : Yes
    Forced                      : No
    Original source medium      : Blu-ray

    Audio #1
    ID                          : 2
    ID in the original source m : 4352 (0x1100)
    Format                      : DTS XLL
    Format/Info                 : Digital Theater Systems
    Commercial name             : DTS-HD Master Audio
    Codec ID                    : A_DTS
    Duration                    : 2 h 4 min
    Bit rate mode               : Variable
    Bit rate                    : 4 649 kb/s
    Channel(s)                  : 6 channels
    Channel layout              : C L R Ls Rs LFE
    Sampling rate               : 48.0 kHz
    Frame rate                  : 93.750 FPS (512 SPF)
    Bit depth                   : 24 bits
    Compression mode            : Lossless
    Stream size                 : 4.06 GiB (16%)
    Language                    : English
    Default                     : No
    Forced                      : No
    Original source medium      : Blu-ray

    Audio #2
    ID                          : 3
    ID in the original source m : 4353 (0x1101)
    Format                      : DTS
    Format/Info                 : Digital Theater Systems
    Codec ID                    : A_DTS
    Duration                    : 2 h 4 min
    Bit rate mode               : Constant
    Bit rate                    : 768 kb/s
    Channel(s)                  : 6 channels
    Channel layout              : C L R Ls Rs LFE
    Sampling rate               : 48.0 kHz
    Frame rate                  : 93.750 FPS (512 SPF)
    Bit depth                   : 24 bits
    Compression mode            : Lossy
    Stream size                 : 686 MiB (3%)
    Language                    : Spanish
    Default                     : Yes
    Forced                      : No
    Original source medium      : Blu-ray

    Text #1
    ID                          : 4
    ID in the original source m : 4609 (0x1201)
    Format                      : PGS
    Muxing mode                 : zlib
    Codec ID                    : S_HDMV/PGS
    Codec ID/Info               : Picture based subtitle format used on BDs/HD-DVDs
    Duration                    : 1 h 55 min
    Bit rate                    : 20.0 kb/s
    Frame rate                  : 0.294 FPS
    Count of elements           : 2030
    Stream size                 : 16.5 MiB (0%)
    Language                    : Spanish
    Default                     : No
    Forced                      : No
    Original source medium      : Blu-ray

    Text #2
    ID                          : 5
    ID in the original source m : 4611 (0x1203)
    Format                      : PGS
    Muxing mode                 : zlib
    Codec ID                    : S_HDMV/PGS
    Codec ID/Info               : Picture based subtitle format used on BDs/HD-DVDs
    Duration                    : 1 h 48 min
    Bit rate                    : 580 b/s
    Frame rate                  : 0.010 FPS
    Count of elements           : 68
    Stream size                 : 459 KiB (0%)
    Language                    : Spanish
    Default                     : No
    Forced                      : No
    Original source medium      : Blu-ray

    Menu
    00:00:00.000                : en:Capítulo 01
    00:07:10.596                : en:Capítulo 02
    00:12:19.196                : en:Capítulo 03
    00:23:19.689                : en:Capítulo 04
    00:29:03.283                : en:Capítulo 05
    00:36:46.204                : en:Capítulo 06
    00:43:38.866                : en:Capítulo 07
    00:49:06.568                : en:Capítulo 08
    00:53:34.127                : en:Capítulo 09
    00:57:29.612                : en:Capítulo 10
    01:11:13.310                : en:Capítulo 11
    01:18:48.265                : en:Capítulo 12
    01:27:29.577                : en:Capítulo 13
    01:30:03.940                : en:Capítulo 14
    01:36:32.828                : en:Capítulo 15
    01:43:58.899                : en:Capítulo 16
    01:49:44.828                : en:Capítulo 17
    01:56:52.088                : en:Capítulo 18

  • Peso: 25.1 GiB

Sinopsis

El legionario Rick O’Connell y su socio descubren durante una batalla en Egipto las ruinas de Hamunaptra, la ciudad de los muertos. Pasado un tiempo, este descubrimiento le permitirá salvar su vida y volver al lugar con una egiptóloga y su hermano, donde coinciden con un grupo de americanos. Todos ellos, seducidos por la aventura, provocarán la resurrección de la momia de un diabólico sacerdote egipcio que intenta desesperadamente recuperar a su amada.

Ficha técnica

Video trailer de la película

Enlaces de descarga

Rip de Bluray

Descargar The Mummy (1999) REMUX 1080p Latino – CMHDD


Aportes de DPeliculasHDmega la pass es:dpeliculashdmega.org Aportes de CinemaniaHD la pass es:cinemaniahdd.com Aportes recientes:cinemaniahdd.net
Guardado en : Acción , Aventura , Fantasía

Películas relacionadas

descargar The Mummy (1999) REMUX 1080p Latino – CMHDD Full 1080p 1080p gratis, The Mummy (1999) REMUX 1080p Latino – CMHDD Full 1080p mega 1 link, The Mummy (1999) REMUX 1080p Latino – CMHDD Full 1080p pelicula completa, descargar The Mummy (1999) REMUX 1080p Latino – CMHDD Full 1080p gratis en mega.

The Mummy (1999) REMUX 1080p Latino – CMHDD pelicula full hd, The Mummy (1999) REMUX 1080p Latino – CMHDD mega latino, The Mummy (1999) REMUX 1080p Latino – CMHDD 4k latino, The Mummy (1999) REMUX 1080p Latino – CMHDD pelicula completa, The Mummy (1999) REMUX 1080p Latino – CMHDD descargar gratis, descargar The Mummy (1999) REMUX 1080p Latino – CMHDD pelicula latino, The Mummy (1999) REMUX 1080p Latino – CMHDD 1 link mega, The Mummy (1999) REMUX 1080p Latino – CMHDD 1 link google drive, The Mummy (1999) REMUX 1080p Latino – CMHDD hd 1080p latino.
Comentarios 0