×

¿Problemas para descargar con Mozilla, EDGE? Deshabilita la opción "Abrir vinculos en una pestaña nueva" tal como lo muestra ésta imagen.

Cazadores de sombras: Ciudad de hueso (2013) REMUX 1080p Latino

308 vistas

Información de Cazadores de sombras: Ciudad de hueso (2013) REMUX 1080p Latino

Datos de la película

  • Calidad: Full 1080p
  • Audio: Se especifica abajo de la Sinopsis
  • Subtitulos: Español Latino SRT- FORZADOS SRT
  • Resolución: 1920x1080p
  • Formato: MKV
  • Codec: H.264
  • Encoder: CinefiloCool
  • Mediainfo: Clic para Mostrar Datos Ver
  • Cazadores De Sombras Ciudad De Hueso (2013) REMUX 1080p Latino-CMHDD.mkv
    Format                      : Matroska
    Format version              : Version 4
    File size                   : 27.2 GiB
    Duration                    : 2 h 10 min
    Overall bit rate mode       : Variable
    Overall bit rate            : 29.9 Mb/s
    Movie name                  : The Mortal Instruments: City of Bones (2013) CinemaniaHDD.Net
    Encoded date                : UTC 2020-11-22 09:20:24
    Writing application         : mkvmerge v51.0.0 ('I Wish') 64-bit
    Writing library             : libebml v1.4.0 + libmatroska v1.6.2
    Attachments                 : CINEMANIAHD.png

    Video
    ID                          : 1
    ID in the original source m : 4113 (0x1011)
    Format                      : AVC
    Format/Info                 : Advanced Video Codec
    Format profile              : High@L4.1
    Format settings             : CABAC / 2 Ref Frames
    Format settings, CABAC      : Yes
    Format settings, Reference  : 2 frames
    Format settings, GOP        : M=1, N=10
    Codec ID                    : V_MPEG4/ISO/AVC
    Duration                    : 2 h 10 min
    Bit rate mode               : Variable
    Bit rate                    : 24.8 Mb/s
    Width                       : 1 920 pixels
    Height                      : 1 080 pixels
    Display aspect ratio        : 16:9
    Frame rate mode             : Constant
    Frame rate                  : 23.976 (24000/1001) FPS
    Color space                 : YUV
    Chroma subsampling          : 4:2:0
    Bit depth                   : 8 bits
    Scan type                   : Progressive
    Bits/(Pixel*Frame)          : 0.499
    Stream size                 : 22.6 GiB (83%)
    Title                       : REMUX HD1080p [CinemaniaHDD]
    Default                     : Yes
    Forced                      : Yes
    Original source medium      : Blu-ray

    Audio #1
    ID                          : 2
    Format                      : E-AC-3
    Format/Info                 : Enhanced AC-3
    Commercial name             : Dolby Digital Plus
    Codec ID                    : A_EAC3
    Duration                    : 2 h 9 min
    Bit rate mode               : Constant
    Bit rate                    : 640 kb/s
    Channel(s)                  : 6 channels
    Channel layout              : L R C LFE Ls Rs
    Sampling rate               : 48.0 kHz
    Frame rate                  : 31.250 FPS (1536 SPF)
    Compression mode            : Lossy
    Delay relative to video     : 18 s 40 ms
    Stream size                 : 595 MiB (2%)
    Title                       : Español Latino [CinemaniaHDD]
    Language                    : Spanish
    Service kind                : Complete Main
    Default                     : Yes
    Forced                      : Yes

    Audio #2
    ID                          : 3
    ID in the original source m : 4353 (0x1101)
    Format                      : DTS XLL
    Format/Info                 : Digital Theater Systems
    Commercial name             : DTS-HD Master Audio
    Codec ID                    : A_DTS
    Duration                    : 2 h 10 min
    Bit rate mode               : Variable
    Bit rate                    : 3 819 kb/s
    Channel(s)                  : 6 channels
    Channel layout              : C L R Ls Rs LFE
    Sampling rate               : 48.0 kHz
    Frame rate                  : 93.750 FPS (512 SPF)
    Bit depth                   : 24 bits
    Compression mode            : Lossless
    Stream size                 : 3.47 GiB (13%)
    Title                       : Ingles [CinemaniaHDD]
    Language                    : English
    Default                     : No
    Forced                      : No
    Original source medium      : Blu-ray

    Audio #3
    ID                          : 4
    Format                      : AC-3
    Format/Info                 : Audio Coding 3
    Commercial name             : Dolby Digital
    Codec ID                    : A_AC3
    Duration                    : 2 h 10 min
    Bit rate mode               : Constant
    Bit rate                    : 640 kb/s
    Channel(s)                  : 6 channels
    Channel layout              : L R C LFE Ls Rs
    Sampling rate               : 48.0 kHz
    Frame rate                  : 31.250 FPS (1536 SPF)
    Compression mode            : Lossy
    Stream size                 : 596 MiB (2%)
    Title                       : Español Latino AC3 [CinemaniaHDD]
    Language                    : Spanish
    Service kind                : Complete Main
    Default                     : No
    Forced                      : No

    Text #1
    ID                          : 5
    Format                      : UTF-8
    Codec ID                    : S_TEXT/UTF8
    Codec ID/Info               : UTF-8 Plain Text
    Duration                    : 23 min 26 s
    Bit rate                    : 0 b/s
    Count of elements           : 4
    Stream size                 : 70.0 Bytes (0%)
    Title                       : Forzados-SRT [CinemaniaHDD]
    Language                    : Spanish
    Default                     : Yes
    Forced                      : Yes

    Text #2
    ID                          : 6
    Format                      : UTF-8
    Codec ID                    : S_TEXT/UTF8
    Codec ID/Info               : UTF-8 Plain Text
    Duration                    : 2 h 1 min
    Bit rate                    : 42 b/s
    Count of elements           : 1198
    Stream size                 : 37.6 KiB (0%)
    Title                       : Español-SRT [CinemaniaHDD]
    Language                    : Spanish
    Default                     : No
    Forced                      : No

    Text #3
    ID                          : 7
    ID in the original source m : 4609 (0x1201)
    Format                      : PGS
    Muxing mode                 : zlib
    Codec ID                    : S_HDMV/PGS
    Codec ID/Info               : Picture based subtitle format used on BDs/HD-DVDs
    Duration                    : 2 h 1 min
    Bit rate                    : 26.6 kb/s
    Count of elements           : 2568
    Stream size                 : 23.1 MiB (0%)
    Title                       : Ingles-PGS [CinemaniaHDD]
    Language                    : English
    Default                     : No
    Forced                      : No
    Original source medium      : Blu-ray

    Menu
    00:00:00.000                : en:Chapter 01
    00:08:04.609                : en:Chapter 02
    00:15:02.359                : en:Chapter 03
    00:22:18.420                : en:Chapter 04
    00:29:46.034                : en:Chapter 05
    00:38:43.112                : en:Chapter 06
    00:44:12.858                : en:Chapter 07
    00:49:45.232                : en:Chapter 08
    00:59:47.709                : en:Chapter 09
    01:06:47.294                : en:Chapter 10
    01:15:36.865                : en:Chapter 11
    01:22:36.076                : en:Chapter 12
    01:30:04.190                : en:Chapter 13
    01:37:07.613                : en:Chapter 14
    01:46:02.189                : en:Chapter 15
    01:54:13.012                : en:Chapter 16
    02:03:01.832                : en:Chapter 17

  • Peso: 27.2 GiB

Sinopsis

Descargar Cazadores de sombras: Ciudad de hueso (2013) REMUX 1080p Latino. Clary Fray es una adolescente ordinaria de Brooklyn hasta la noche que conoce al misterioso chico de los tatuajes Jace, quién resulta ser un guerrero medio ángel conocido como cazador de sombras. Cuando Clary descubre que su madre Jocelyn ha sido raptada, desesperadamente espera que Jace pueda ayudarla. Después de entrar en un portal dorado que la transporta a través del tiempo y espacio en un latido de corazón, Clary se da cuenta que ella también tiene poderes para los cazadores de sombras. ¿Pero puede aprovecharlos a tiempo para salvar a su madre?

Audio Español Latino EAC3 5.1 + AC3 5.1 Amazon – Ingles DTS-HD 5.1 Bluray

Ficha técnica

Video trailer de la película

Enlaces de descarga

Rip de Bluray

Descargar Cazadores de sombras: Ciudad de hueso (2013) REMUX 1080p Latino




Aportes de DPeliculasHDmega la pass es:dpeliculashdmega.org Aportes de CinemaniaHD la pass es:cinemaniahdd.com
Guardado en : Acción , Fantasía , Misterio , Remux

Películas relacionadas

descargar Cazadores de sombras: Ciudad de hueso (2013) REMUX 1080p Latino Full 1080p 1080p gratis, Cazadores de sombras: Ciudad de hueso (2013) REMUX 1080p Latino Full 1080p mega 1 link, Cazadores de sombras: Ciudad de hueso (2013) REMUX 1080p Latino Full 1080p pelicula completa, descargar Cazadores de sombras: Ciudad de hueso (2013) REMUX 1080p Latino Full 1080p gratis en mega.

Cazadores de sombras: Ciudad de hueso (2013) REMUX 1080p Latino pelicula full hd, Cazadores de sombras: Ciudad de hueso (2013) REMUX 1080p Latino mega latino, Cazadores de sombras: Ciudad de hueso (2013) REMUX 1080p Latino 4k latino, Cazadores de sombras: Ciudad de hueso (2013) REMUX 1080p Latino pelicula completa, Cazadores de sombras: Ciudad de hueso (2013) REMUX 1080p Latino descargar gratis, descargar Cazadores de sombras: Ciudad de hueso (2013) REMUX 1080p Latino pelicula latino, Cazadores de sombras: Ciudad de hueso (2013) REMUX 1080p Latino 1 link mega, Cazadores de sombras: Ciudad de hueso (2013) REMUX 1080p Latino 1 link google drive, Cazadores de sombras: Ciudad de hueso (2013) REMUX 1080p Latino hd 1080p latino.
Comentarios 0