The Monster (2016) 1080p Latino

1.651 vistas
1 estrella2 estrellas3 estrellas4 estrellas5 estrellas (Ninguna valoración todavía)
Cargando…

Información de The Monster (2016) 1080p Latino

Datos de la película

  • Calidad: 1080p
  • Audio: Español Latino AC3 2.0 Capturado - Ingles AC3 5.1 BLURAY
  • Subtitulos: Español Latino SRT
  • Resolución: 1920X800
  • Formato: MKV
  • Codec: H.264
  • Encoder: Dpelis
  • Mediainfo: Clic para Mostrar Datos Ver
  • Format                                   : Matroska
    Format version                           : Version 4 / Version 2
    File size                                : 2.50 GiB
    Duration                                 : 1 h 31 min
    Overall bit rate                         : 3 914 kb/s
    Movie name                               : dpeliculashdmega.org
    Encoded date                             : UTC 2017-11-16 02:16:43 / UTC 2017-11-16T01:29:36Z
    Writing application                      : mkvmerge v15.0.0 ('Duel with the Devil') 64-bit
    Writing library                          : libebml v1.3.5 + libmatroska v1.4.5 / Lavf57.7.2

    Video
    ID                                       : 1
    Format                                   : AVC
    Format/Info                              : Advanced Video Codec
    Format profile                           : High@L4.1
    Format settings                          : CABAC / 5 Ref Frames
    Format settings, CABAC                   : Yes
    Format settings, RefFrames               : 5 frames
    Codec ID                                 : V_MPEG4/ISO/AVC
    Duration                                 : 1 h 31 min
    Bit rate                                 : 3 260 kb/s
    Nominal bit rate                         : 3 500 kb/s
    Width                                    : 1 920 pixels
    Height                                   : 800 pixels
    Display aspect ratio                     : 2.40:1
    Frame rate mode                          : Constant
    Frame rate                               : 23.976 (24000/1001) FPS
    Color space                              : YUV
    Chroma subsampling                       : 4:2:0
    Bit depth                                : 8 bits
    Scan type                                : Progressive
    Bits/(Pixel*Frame)                       : 0.089
    Stream size                              : 2.08 GiB (83%)
    Title                                    : The Monster (2016) 1080p Latino
    Writing library                          : x264 core 148 r2708 86b7198
    Encoding settings                        : cabac=1 / ref=5 / deblock=1:0:0 / analyse=0x3:0x113 / me=umh / subme=8 / psy=1 / psy_rd=1.00:0.00 / mixed_ref=1 / me_range=16 / chroma_me=1 / trellis=1 / 8x8dct=1 / cqm=0 / deadzone=21,11 / fast_pskip=1 / chroma_qp_offset=-2 / threads=25 / lookahead_threads=4 / sliced_threads=0 / nr=0 / decimate=1 / interlaced=0 / bluray_compat=0 / constrained_intra=0 / bframes=3 / b_pyramid=2 / b_adapt=2 / b_bias=0 / direct=3 / weightb=1 / open_gop=0 / weightp=2 / keyint=240 / keyint_min=24 / scenecut=40 / intra_refresh=0 / rc_lookahead=50 / rc=abr / mbtree=1 / bitrate=3500 / ratetol=1.0 / qcomp=0.60 / qpmin=0 / qpmax=69 / qpstep=4 / vbv_maxrate=62500 / vbv_bufsize=78125 / nal_hrd=none / filler=0 / ip_ratio=1.40 / aq=1:1.00
    Language                                 : English
    Default                                  : Yes
    Forced                                   : No
    Color range                              : Limited
    Color primaries                          : BT.709
    Transfer characteristics                 : BT.709
    Matrix coefficients                      : BT.709
    Statistics Tags Issue                    : mkvmerge v15.0.0 ('Duel with the Devil') 64-bit 2017-11-16 02:16:43 / mkvmerge v15.0.0 ('Duel with the Devil') 64-bit 2017-11-16 02:16:43 / UTC 2017-11-16T01:29:36Z
    FromStats_BitRate                        : 3336173
    FromStats_Duration                       : 01:31:25.522000000
    FromStats_FrameCount                     : 131521
    FromStats_StreamSize                     : 2287581915

    Audio #1
    ID                                       : 2
    Format                                   : AC-3
    Format/Info                              : Audio Coding 3
    Format settings, Endianness              : Big
    Codec ID                                 : A_AC3
    Duration                                 : 1 h 31 min
    Bit rate mode                            : Constant
    Bit rate                                 : 192 kb/s
    Channel(s)                               : 2 channels
    Channel positions                        : Front: L R
    Sampling rate                            : 48.0 kHz
    Frame rate                               : 31.250 FPS (1536 SPF)
    Bit depth                                : 16 bits
    Compression mode                         : Lossy
    Delay relative to video                  : 11 ms
    Stream size                              : 126 MiB (5%)
    Title                                    : Latino-AC3
    Language                                 : Spanish
    Service kind                             : Complete Main
    Default                                  : Yes
    Forced                                   : No
    Statistics Tags Issue                    : mkvmerge v15.0.0 ('Duel with the Devil') 64-bit 2017-11-16 02:16:43 / mkvmerge v15.0.0 ('Duel with the Devil') 64-bit 2017-11-16 02:16:43 / UTC 2017-11-16T01:29:36Z
    FromStats_BitRate                        : 192000
    FromStats_Duration                       : 01:31:16.352000000
    FromStats_FrameCount                     : 171136
    FromStats_StreamSize                     : 131432448

    Audio #2
    ID                                       : 3
    Format                                   : AC-3
    Format/Info                              : Audio Coding 3
    Format settings, Endianness              : Big
    Codec ID                                 : A_AC3
    Duration                                 : 1 h 31 min
    Bit rate mode                            : Constant
    Bit rate                                 : 384 kb/s
    Channel(s)                               : 6 channels
    Channel positions                        : Front: L C R, Side: L R, LFE
    Sampling rate                            : 48.0 kHz
    Frame rate                               : 31.250 FPS (1536 SPF)
    Bit depth                                : 16 bits
    Compression mode                         : Lossy
    Delay relative to video                  : -5 ms
    Stream size                              : 251 MiB (10%)
    Title                                    : Ingles-AC3
    Language                                 : English
    Service kind                             : Complete Main
    Default                                  : No
    Forced                                   : No
    Statistics Tags Issue                    : mkvmerge v15.0.0 ('Duel with the Devil') 64-bit 2017-11-16 02:16:43 / mkvmerge v15.0.0 ('Duel with the Devil') 64-bit 2017-11-16 02:16:43 / UTC 2017-11-16T01:29:36Z
    FromStats_BitRate                        : 384000
    FromStats_Duration                       : 01:31:25.504000000
    FromStats_FrameCount                     : 171422
    FromStats_StreamSize                     : 263304192

    Text
    ID                                       : 4
    Format                                   : UTF-8
    Codec ID                                 : S_TEXT/UTF8
    Codec ID/Info                            : UTF-8 Plain Text
    Language                                 : Spanish
    Default                                  : No
    Forced                                   : No
    Statistics Tags Issue                    : mkvmerge v15.0.0 ('Duel with the Devil') 64-bit 2017-11-16 02:16:43 / mkvmerge v15.0.0 ('Duel with the Devil') 64-bit 2017-11-16 02:16:43 / UTC 2017-11-16T01:29:36Z
    FromStats_BitRate                        : 24
    FromStats_Duration                       : 01:24:41.286000000
    FromStats_FrameCount                     : 601
    FromStats_StreamSize                     : 15790

    Menu
    00:00:00.000                             : :Chapter 1
    00:06:17.961                             : :Chapter 2
    00:12:26.704                             : :Chapter 3
    00:17:23.334                             : :Chapter 4
    00:23:33.287                             : :Chapter 5
    00:30:23.905                             : :Chapter 6
    00:34:56.136                             : :Chapter 7
    00:42:57.408                             : :Chapter 8
    00:48:23.025                             : :Chapter 9
    00:53:01.387                             : :Chapter 10
    00:57:45.754                             : :Chapter 11
    00:59:43.747                             : :Chapter 12
    01:05:26.381                             : :Chapter 13
    01:14:45.064                             : :Chapter 14
    01:19:02.738                             : :Chapter 15
    01:23:55.113                             : :Chapter 16

  • Peso: 2.50 GiB

Sinopsis

Kathy y su hija Lizzy se extravían en el bosque, quedando atrapadas en medio de una tormenta colosal. Por si esto fuera poco, son acechadas por una criatura terrible, que no es humana ni animal. Con The Monster, Bryan Bertino convierte el terror primario en un elemento catártico para redefinir la relación entre una madre y su hija.

Ficha técnica

  • Titulo original: The Monster
  • Fecha de lanzamiento: 11-11-2016 (United States of America)
  • Director: Bryan Bertino
  • Género: Drama, Terror
  • Puntuación: 0.0 0 votos
  • Duración:
    1 h 31 min

Video trailer de la película

Enlaces de descarga

Rip de Bluray

Descargar The Monster (2016) 1080p Latino




Aportes de DPeliculasHDmega la pass es:dpeliculashdmega.org Aportes de CinemaniaHD la pass es:cinemaniahdd.com
Guardado en : Drama , Terror

Películas relacionadas

  • La balada de Buster Scruggs (2018) NF 1080p Latino

    2018
    La balada de Buster Scruggs (2018) NF 1080p Latino

    0.0 2h 12m 2018

    Los siempre singulares Joel y Ethan Cohen escriben y dirigen esta antología de seis historias del Salvaje...

    Director: Joel Coen

    Género: Comedia

    Actores: Zoe Kazan

  • Cam (2018) NF 1080p Latino

    2018
    Cam (2018) NF 1080p Latino

    0.0 1h 34m 2018

    Alice es una camgirl con un código inamovible, que le permite mantener una cierta distancia con los...

    Director: Rachel Penner

    Género: Suspense

    Actores: Samantha Robinson

  • La pequeña brujita (2018) AMZN 1080p Latino

    2018
    La pequeña brujita (2018) AMZN 1080p Latino

    5.0 1h 43m 2018

    Descargar La pequeña brujita (2018) AMZN 1080p Latino, Mega, Google Drive. La pequeña bruja sólo tiene...

    Director: Mike Schaerer

    Género: Comedia

    Actores: Verena Bosshard

  • Puzzle (2018) Web-DL 1080p Latino

    2018
    Puzzle (2018) Web-DL 1080p Latino

    0.0 1h 43m 2018

    Descargar Puzzle (2018) Web-DL 1080p Latino; Mega, Google Drive. Una mujer acude a Atlantic City para...

    Director: Marc Turtletaub

    Género: Drama

    Actores: Myrna Cabello

Comentarios 0