The Model (2016) 1080p Latino

1.628 vistas
1 estrella2 estrellas3 estrellas4 estrellas5 estrellas (1 votos, promedio: 5,00 de 5)
Cargando…

Información de The Model (2016) 1080p Latino

Datos de la película

  • Calidad: 1080p
  • Audio: Español Latino AC3 2.0 iTUNES - Ingles AC3 5.1 BLURAY
  • Subtitulos: Español Latino SRT - Ingles SRT
  • Resolución: 1916x1036p
  • Formato: MKV
  • Codec: H.264
  • Encoder: Dpelis
  • Mediainfo: Clic para Mostrar Datos Ver
  • The.model.2016.1080p.Latino.mkv
    Format                      : Matroska
    Format version              : Version 4 / Version 2
    File size                   : 2.99 GiB
    Duration                    : 1 h 48 min
    Overall bit rate            : 3 956 kb/s
    Movie name                  : DPeliculasHDMega.ORG
    Encoded date                : UTC 2017-08-02 11:50:11 / UTC 2017-08-02T01:52:00Z
    Writing application         : mkvmerge v10.0.0 ('To Drown In You') 64bit
    Writing library             : libebml v1.3.4 + libmatroska v1.4.5 / Lavf57.7.2

    Video
    ID                          : 1
    Format                      : AVC
    Format/Info                 : Advanced Video Codec
    Format profile              : High@L4.1
    Format settings, CABAC      : Yes
    Format settings, ReFrames   : 4 frames
    Codec ID                    : V_MPEG4/ISO/AVC
    Duration                    : 1 h 48 min
    Bit rate                    : 3 301 kb/s
    Nominal bit rate            : 3 500 kb/s
    Width                       : 1 916 pixels
    Height                      : 1 036 pixels
    Display aspect ratio        : 1.85:1
    Frame rate mode             : Constant
    Frame rate                  : 24.000 FPS
    Color space                 : YUV
    Chroma subsampling          : 4:2:0
    Bit depth                   : 8 bits
    Scan type                   : Progressive
    Bits/(Pixel*Frame)          : 0.069
    Stream size                 : 2.49 GiB (83%)
    Writing library             : x264 core 148 r2708 86b7198
    Encoding settings           : cabac=1 / ref=3 / deblock=1:0:0 / analyse=0x3:0x113 / me=hex / subme=7 / psy=1 / psy_rd=1.00:0.00 / mixed_ref=1 / me_range=16 / chroma_me=1 / trellis=1 / 8x8dct=1 / cqm=0 / deadzone=21,11 / fast_pskip=1 / chroma_qp_offset=-2 / threads=32 / lookahead_threads=5 / sliced_threads=0 / nr=0 / decimate=1 / interlaced=0 / bluray_compat=0 / constrained_intra=0 / bframes=3 / b_pyramid=2 / b_adapt=1 / b_bias=0 / direct=1 / weightb=1 / open_gop=0 / weightp=2 / keyint=240 / keyint_min=24 / scenecut=40 / intra_refresh=0 / rc_lookahead=40 / rc=abr / mbtree=1 / bitrate=3500 / ratetol=1.0 / qcomp=0.60 / qpmin=0 / qpmax=69 / qpstep=4 / vbv_maxrate=62500 / vbv_bufsize=78125 / nal_hrd=none / filler=0 / ip_ratio=1.40 / aq=1:1.00
    Default                     : Yes
    Forced                      : No
    Color range                 : Limited
    Color primaries             : BT.709
    Transfer characteristics    : BT.709
    Matrix coefficients         : BT.709
    Statistics Tags Issue       : mkvmerge v10.0.0 ('To Drown In You') 64bit 2017-08-02 11:50:11 / mkvmerge v10.0.0 ('To Drown In You') 64bit 2017-08-02 11:50:11 / UTC 2017-08-02T01:52:00Z
    FromStats_BitRate           : 3378248
    FromStats_Duration          : 01:48:02.375000000
    FromStats_FrameCount        : 155577
    FromStats_StreamSize        : 2737384001

    Audio #1
    ID                          : 2
    Format                      : AC-3
    Format/Info                 : Audio Coding 3
    Format settings, Endianness : Big
    Codec ID                    : A_AC3
    Duration                    : 1 h 48 min
    Bit rate mode               : Constant
    Bit rate                    : 192 kb/s
    Channel(s)                  : 2 channels
    Channel positions           : Front: L R
    Sampling rate               : 48.0 kHz
    Frame rate                  : 31.250 FPS (1536 spf)
    Bit depth                   : 16 bits
    Compression mode            : Lossy
    Delay relative to video     : 795 ms
    Stream size                 : 148 MiB (5%)
    Language                    : Spanish
    Service kind                : Complete Main
    Default                     : Yes
    Forced                      : No
    Statistics Tags Issue       : mkvmerge v10.0.0 ('To Drown In You') 64bit 2017-08-02 11:50:11 / mkvmerge v10.0.0 ('To Drown In You') 64bit 2017-08-02 11:50:11 / UTC 2017-08-02T01:52:00Z
    FromStats_BitRate           : 192000
    FromStats_Duration          : 01:47:55.104000000
    FromStats_FrameCount        : 202347
    FromStats_StreamSize        : 155402496

    Audio #2
    ID                          : 3
    Format                      : AC-3
    Format/Info                 : Audio Coding 3
    Format settings, Endianness : Big
    Codec ID                    : A_AC3
    Duration                    : 1 h 48 min
    Bit rate mode               : Constant
    Bit rate                    : 384 kb/s
    Channel(s)                  : 6 channels
    Channel positions           : Front: L C R, Side: L R, LFE
    Sampling rate               : 48.0 kHz
    Frame rate                  : 31.250 FPS (1536 spf)
    Bit depth                   : 16 bits
    Compression mode            : Lossy
    Delay relative to video     : -5 ms
    Stream size                 : 297 MiB (10%)
    Title                       : Surround
    Language                    : English
    Service kind                : Complete Main
    Default                     : No
    Forced                      : No
    Statistics Tags Issue       : mkvmerge v10.0.0 ('To Drown In You') 64bit 2017-08-02 11:50:11 / mkvmerge v10.0.0 ('To Drown In You') 64bit 2017-08-02 11:50:11 / UTC 2017-08-02T01:52:00Z
    FromStats_BitRate           : 384000
    FromStats_Duration          : 01:48:02.336000000
    FromStats_FrameCount        : 202573
    FromStats_StreamSize        : 311152128

    Text #1
    ID                          : 4
    Format                      : UTF-8
    Codec ID                    : S_TEXT/UTF8
    Codec ID/Info               : UTF-8 Plain Text
    Language                    : Spanish
    Default                     : Yes
    Forced                      : No
    Statistics Tags Issue       : mkvmerge v10.0.0 ('To Drown In You') 64bit 2017-08-02 11:50:11 / mkvmerge v10.0.0 ('To Drown In You') 64bit 2017-08-02 11:50:11 / UTC 2017-08-02T01:52:00Z
    FromStats_BitRate           : 31
    FromStats_Duration          : 01:42:36.201000000
    FromStats_FrameCount        : 695
    FromStats_StreamSize        : 24270

    Text #2
    ID                          : 5
    Format                      : UTF-8
    Codec ID                    : S_TEXT/UTF8
    Codec ID/Info               : UTF-8 Plain Text
    Language                    : English
    Default                     : No
    Forced                      : No
    Statistics Tags Issue       : mkvmerge v10.0.0 ('To Drown In You') 64bit 2017-08-02 11:50:11 / mkvmerge v10.0.0 ('To Drown In You') 64bit 2017-08-02 11:50:11 / UTC 2017-08-02T01:52:00Z
    FromStats_BitRate           : 3
    FromStats_Duration          : 01:40:15.925000000
    FromStats_FrameCount        : 89
    FromStats_StreamSize        : 2547

  • Peso: 2.9 GB

Sinopsis

Emma, una emergente modelo de moda, lucha por entrar en el mundo de la moda parisina,desarrolla una obsesión peligrosa con el fotógrafo de moda masculina Shane White.

Ficha técnica

  • Titulo original: The Model
  • Fecha de lanzamiento: 11-02-2016 (Denmark, Poland)
  • Director: Mads Matthiesen
  • Género: Drama
  • Puntuación: 5.0 1 votos
  • Duración:
    1h 45m

Video trailer de la película

Enlaces de descarga

Rip de Bluray

Descargar The Model (2016) 1080p Latino




Aportes de DPeliculasHDmega la pass es:dpeliculashdmega.org Aportes de CinemaniaHD la pass es:cinemaniahdd.com
Guardado en : Drama

Películas relacionadas

Comentarios 0