×

¿Problemas para descargar con Mozilla, EDGE? Deshabilita la opción "Abrir vinculos en una pestaña nueva" tal como lo muestra ésta imagen.

The mist (2007) Colour Edition REMUX 1080p Latino

216 vistas

Información de The mist (2007) Colour Edition REMUX 1080p Latino

Datos de la película

  • Calidad: Full 1080p
  • Audio: Se especifica abajo de la Sinopsis
  • Subtitulos: Español Latino PGS - Ingles PGS
  • Resolución: 1920x1080p
  • Formato: MKV
  • Codec: H.264
  • Encoder: CinefiloCool-Dracarys
  • Mediainfo: Clic para Mostrar Datos Ver
  • The mist (2007) Colour Edition REMUX 1080p Latino-CMHDD.mkv
    Format                      : Matroska
    Format version              : Version 4
    File size                   : 20.7 GiB
    Duration                    : 2 h 5 min
    Overall bit rate mode       : Variable
    Overall bit rate            : 23.5 Mb/s
    Movie name                  : The mist (2007) Colour Edition CinemaniaHDD.Net
    Encoded date                : UTC 2023-06-19 04:53:19
    Writing application         : mkvmerge v56.1.0 ('My Friend') 64-bit
    Writing library             : libebml v1.4.2 + libmatroska v1.6.4
    Attachments                 : CINEMANIAHD.png

    Video
    ID                          : 1
    ID in the original source m : 4113 (0x1011)
    Format                      : AVC
    Format/Info                 : Advanced Video Codec
    Format profile              : High@L4.1
    Format settings             : CABAC / 3 Ref Frames
    Format settings, CABAC      : Yes
    Format settings, Reference  : 3 frames
    Codec ID                    : V_MPEG4/ISO/AVC
    Duration                    : 2 h 5 min
    Bit rate mode               : Variable
    Bit rate                    : 19.8 Mb/s
    Maximum bit rate            : 40.0 Mb/s
    Width                       : 1 920 pixels
    Height                      : 1 080 pixels
    Display aspect ratio        : 16:9
    Frame rate mode             : Constant
    Frame rate                  : 23.976 (24000/1001) FPS
    Standard                    : NTSC
    Color space                 : YUV
    Chroma subsampling          : 4:2:0
    Bit depth                   : 8 bits
    Scan type                   : Progressive
    Bits/(Pixel*Frame)          : 0.398
    Stream size                 : 17.4 GiB (84%)
    Title                       : REMUX HD1080p [CinemaniaHDD]
    Default                     : Yes
    Forced                      : Yes
    Color range                 : Limited
    Original source medium      : Blu-ray

    Audio #1
    ID                          : 2
    Format                      : AC-3
    Format/Info                 : Audio Coding 3
    Commercial name             : Dolby Digital
    Codec ID                    : A_AC3
    Duration                    : 2 h 5 min
    Bit rate mode               : Constant
    Bit rate                    : 256 kb/s
    Channel(s)                  : 2 channels
    Channel layout              : L R
    Sampling rate               : 48.0 kHz
    Frame rate                  : 31.250 FPS (1536 SPF)
    Compression mode            : Lossy
    Stream size                 : 231 MiB (1%)
    Title                       : Español Latino [CinemaniaHDD]
    Language                    : Spanish
    Service kind                : Complete Main
    Default                     : Yes
    Forced                      : Yes

    Audio #2
    ID                          : 3
    ID in the original source m : 4352 (0x1100)
    Format                      : MLP FBA
    Format/Info                 : Meridian Lossless Packing FBA
    Commercial name             : Dolby TrueHD
    Codec ID                    : A_TRUEHD
    Duration                    : 2 h 5 min
    Bit rate mode               : Variable
    Bit rate                    : 2 763 kb/s
    Maximum bit rate            : 4 950 kb/s
    Channel(s)                  : 6 channels
    Channel layout              : L R C LFE Ls Rs
    Sampling rate               : 48.0 kHz
    Frame rate                  : 1 200.000 FPS (40 SPF)
    Compression mode            : Lossless
    Stream size                 : 2.43 GiB (12%)
    Title                       : Ingles [CinemaniaHDD]
    Language                    : English
    Default                     : No
    Forced                      : No
    Original source medium      : Blu-ray

    Audio #3
    ID                          : 4
    ID in the original source m : 4352 (0x1100)
    Format                      : AC-3
    Format/Info                 : Audio Coding 3
    Commercial name             : Dolby Digital
    Codec ID                    : A_AC3
    Duration                    : 2 h 5 min
    Bit rate mode               : Constant
    Bit rate                    : 640 kb/s
    Channel(s)                  : 6 channels
    Channel layout              : L R C LFE Ls Rs
    Sampling rate               : 48.0 kHz
    Frame rate                  : 31.250 FPS (1536 SPF)
    Compression mode            : Lossy
    Stream size                 : 577 MiB (3%)
    Title                       : Ingles AC3 [CinemaniaHDD]
    Language                    : English
    Service kind                : Complete Main
    Default                     : No
    Forced                      : No
    Original source medium      : Blu-ray

    Text #1
    ID                          : 5
    ID in the original source m : 4609 (0x1201)
    Format                      : PGS
    Muxing mode                 : zlib
    Codec ID                    : S_HDMV/PGS
    Codec ID/Info               : Picture based subtitle format used on BDs/HD-DVDs
    Duration                    : 1 h 54 min
    Bit rate                    : 40.9 kb/s
    Count of elements           : 3230
    Stream size                 : 33.7 MiB (0%)
    Title                       : Español-PGS [CinemaniaHDD]
    Language                    : Spanish
    Default                     : No
    Forced                      : No
    Original source medium      : Blu-ray

    Text #2
    ID                          : 6
    ID in the original source m : 4608 (0x1200)
    Format                      : PGS
    Muxing mode                 : zlib
    Codec ID                    : S_HDMV/PGS
    Codec ID/Info               : Picture based subtitle format used on BDs/HD-DVDs
    Duration                    : 2 h 5 min
    Bit rate                    : 46.0 kb/s
    Count of elements           : 3794
    Stream size                 : 41.3 MiB (0%)
    Title                       : Ingles-PGS [CinemaniaHDD]
    Language                    : English
    Default                     : No
    Forced                      : No
    Original source medium      : Blu-ray

    Text #3
    ID                          : 7
    Format                      : UTF-8
    Codec ID                    : S_TEXT/UTF8
    Codec ID/Info               : UTF-8 Plain Text
    Duration                    : 2 s 336 ms
    Bit rate                    : 54 b/s
    Count of elements           : 1
    Stream size                 : 16.0 Bytes (0%)
    Title                       : Forzados-SRT [CinemaniaHDD]
    Language                    : Spanish
    Default                     : Yes
    Forced                      : Yes

    Text #4
    ID                          : 8
    Format                      : UTF-8
    Codec ID                    : S_TEXT/UTF8
    Codec ID/Info               : UTF-8 Plain Text
    Duration                    : 1 h 54 min
    Bit rate                    : 57 b/s
    Count of elements           : 1609
    Stream size                 : 48.0 KiB (0%)
    Title                       : Español-SRT [CinemaniaHDD]
    Language                    : Spanish
    Default                     : No
    Forced                      : No

    Menu
    00:00:00.000                : Chapter 01
    00:06:02.653                : Chapter 02
    00:17:34.428                : Chapter 03
    00:22:14.583                : Chapter 04
    00:28:42.220                : Chapter 05
    00:31:46.571                : Chapter 06
    00:38:59.086                : Chapter 07
    00:41:40.956                : Chapter 08
    00:47:43.527                : Chapter 09
    00:54:28.431                : Chapter 10
    01:05:58.579                : Chapter 11
    01:17:13.211                : Chapter 12
    01:25:25.495                : Chapter 13
    01:29:20.730                : Chapter 14
    01:35:28.723                : Chapter 15
    01:41:05.684                : Chapter 16
    01:44:07.491                : Chapter 17
    01:57:23.786                : Chapter 18

  • Peso: 20.7 GiB

Sinopsis

Descargar The mist (2007) Colour Edition REMUX 1080p Latino. También conocida como Stephen King’s The Mist (titulada: La niebla en España, Argentina y Chile y Sobre-natural en México) En un pequeño pueblo de Maine, estalla de repente una violenta tormenta que termina tan bruscamente como comenzó. Entonces surge una espesa niebla que va entrando en casas y supermercados, atrapando y matando a todos los que se ven envueltos por la oscuridad.

Audio Español Latino AC3 2.0 Netflix – Ingles THD 5.1 + AC3 5.1 Bluray

Audio Español Latino E-AC-3 5.1 Prime Video

  

Ficha técnica

Video trailer de la película

Enlaces de descarga

Rip de Bluray

Descargar The mist (2007) Colour Edition REMUX 1080p Latino


Aportes de DPeliculasHDmega la pass es:dpeliculashdmega.org Aportes de CinemaniaHD la pass es:cinemaniahdd.com Aportes recientes:cinemaniahdd.net
Guardado en : Ciencia ficción , Remux , Suspenso , Terror

Películas relacionadas

descargar The mist (2007) Colour Edition REMUX 1080p Latino Full 1080p 1080p gratis, The mist (2007) Colour Edition REMUX 1080p Latino Full 1080p mega 1 link, The mist (2007) Colour Edition REMUX 1080p Latino Full 1080p pelicula completa, descargar The mist (2007) Colour Edition REMUX 1080p Latino Full 1080p gratis en mega.

The mist (2007) Colour Edition REMUX 1080p Latino pelicula full hd, The mist (2007) Colour Edition REMUX 1080p Latino mega latino, The mist (2007) Colour Edition REMUX 1080p Latino 4k latino, The mist (2007) Colour Edition REMUX 1080p Latino pelicula completa, The mist (2007) Colour Edition REMUX 1080p Latino descargar gratis, descargar The mist (2007) Colour Edition REMUX 1080p Latino pelicula latino, The mist (2007) Colour Edition REMUX 1080p Latino 1 link mega, The mist (2007) Colour Edition REMUX 1080p Latino 1 link google drive, The mist (2007) Colour Edition REMUX 1080p Latino hd 1080p latino.
Comentarios 0