×

¿Problemas para descargar con Mozilla, EDGE? Deshabilita la opción "Abrir vinculos en una pestaña nueva" tal como lo muestra ésta imagen.

The Miracle Club (2023) REMUX 1080p Latino

90 vistas

Información de The Miracle Club (2023) REMUX 1080p Latino

Datos de la película

  • Calidad: Full 1080p
  • Audio: Se especifica abajo de la Sinopsis
  • Subtitulos: Español Latino PGS - Ingles PGS
  • Resolución: 1920x1080p
  • Formato: MKV
  • Codec: H.264
  • Encoder: Melkor
  • Mediainfo: Clic para Mostrar Datos Ver
  • The Miracle Club (2023) REMUX 1080p Latino.mkv
    Format                      : Matroska
    Format version              : Version 4
    File size                   : 21.3 GiB
    Duration                    : 1 h 30 min
    Overall bit rate mode       : Variable
    Overall bit rate            : 33.6 Mb/s
    Movie name                  : The Miracle Club (2023) CinemaniaHDD.Net
    Encoded date                : UTC 2023-11-07 05:35:56
    Writing application         : mkvmerge v56.1.0 ('My Friend') 64-bit
    Writing library             : libebml v1.4.2 + libmatroska v1.6.4
    Attachments                 : CINEMANIAHD.png
    Site                        : CinemaniaHDD.Net
    Uploader                    : Melkor

    Video
    ID                          : 1
    Format                      : AVC
    Format/Info                 : Advanced Video Codec
    Format profile              : High@L4.1
    Format settings             : CABAC / 4 Ref Frames
    Format settings, CABAC      : Yes
    Format settings, Reference  : 4 frames
    Codec ID                    : V_MPEG4/ISO/AVC
    Duration                    : 1 h 30 min
    Bit rate mode               : Variable
    Bit rate                    : 25.4 Mb/s
    Maximum bit rate            : 35.6 Mb/s
    Width                       : 1 920 pixels
    Height                      : 1 080 pixels
    Display aspect ratio        : 16:9
    Frame rate mode             : Constant
    Frame rate                  : 23.976 (24000/1001) FPS
    Color space                 : YUV
    Chroma subsampling          : 4:2:0
    Bit depth                   : 8 bits
    Scan type                   : Progressive
    Bits/(Pixel*Frame)          : 0.510
    Stream size                 : 16.1 GiB (75%)
    Title                       : REMUX HD1080p [CinemaniaHDD]
    Default                     : Yes
    Forced                      : Yes

    Audio #1
    ID                          : 2
    Format                      : DTS
    Format/Info                 : Digital Theater Systems
    Codec ID                    : A_DTS
    Duration                    : 1 h 30 min
    Bit rate mode               : Constant
    Bit rate                    : 1 509 kb/s
    Channel(s)                  : 6 channels
    Channel layout              : C L R Ls Rs LFE
    Sampling rate               : 48.0 kHz
    Frame rate                  : 93.750 FPS (512 SPF)
    Bit depth                   : 24 bits
    Compression mode            : Lossy
    Stream size                 : 976 MiB (4%)
    Title                       : Español Latino Core DTS [CinemaniaHDD]
    Language                    : Spanish
    Default                     : Yes
    Forced                      : Yes

    Audio #2
    ID                          : 3
    ID in the original source m : 4353 (0x1101)
    Format                      : DTS XLL
    Format/Info                 : Digital Theater Systems
    Commercial name             : DTS-HD Master Audio
    Codec ID                    : A_DTS
    Duration                    : 1 h 30 min
    Bit rate mode               : Variable
    Bit rate                    : 3 458 kb/s
    Channel(s)                  : 6 channels
    Channel layout              : C L R Ls Rs LFE
    Sampling rate               : 48.0 kHz
    Frame rate                  : 93.750 FPS (512 SPF)
    Bit depth                   : 24 bits
    Compression mode            : Lossless
    Stream size                 : 2.18 GiB (10%)
    Title                       : Español Latino [CinemaniaHDD]
    Language                    : Spanish
    Default                     : No
    Forced                      : No
    Original source medium      : Blu-ray

    Audio #3
    ID                          : 4
    ID in the original source m : 4352 (0x1100)
    Format                      : DTS XLL
    Format/Info                 : Digital Theater Systems
    Commercial name             : DTS-HD Master Audio
    Codec ID                    : A_DTS
    Duration                    : 1 h 30 min
    Bit rate mode               : Variable
    Bit rate                    : 3 294 kb/s
    Channel(s)                  : 6 channels
    Channel layout              : C L R Ls Rs LFE
    Sampling rate               : 48.0 kHz
    Frame rate                  : 93.750 FPS (512 SPF)
    Bit depth                   : 24 bits
    Compression mode            : Lossless
    Stream size                 : 2.08 GiB (10%)
    Title                       : Ingles [CinemaniaHDD]
    Language                    : English
    Default                     : No
    Forced                      : No
    Original source medium      : Blu-ray

    Text #1
    ID                          : 5
    ID in the original source m : 4611 (0x1203)
    Format                      : PGS
    Muxing mode                 : zlib
    Codec ID                    : S_HDMV/PGS
    Codec ID/Info               : Picture based subtitle format used on BDs/HD-DVDs
    Duration                    : 1 h 29 min
    Bit rate                    : 329 b/s
    Count of elements           : 18
    Stream size                 : 217 KiB (0%)
    Title                       : Forzados-PGS [CinemaniaHDD]
    Language                    : Spanish
    Default                     : No
    Forced                      : No
    Original source medium      : Blu-ray

    Text #2
    ID                          : 6
    ID in the original source m : 4610 (0x1202)
    Format                      : PGS
    Muxing mode                 : zlib
    Codec ID                    : S_HDMV/PGS
    Codec ID/Info               : Picture based subtitle format used on BDs/HD-DVDs
    Duration                    : 1 h 29 min
    Bit rate                    : 21.5 kb/s
    Count of elements           : 1804
    Stream size                 : 13.8 MiB (0%)
    Title                       : Español-PGS [CinemaniaHDD]
    Language                    : Spanish
    Default                     : No
    Forced                      : No
    Original source medium      : Blu-ray

    Text #3
    ID                          : 7
    ID in the original source m : 4608 (0x1200)
    Format                      : PGS
    Muxing mode                 : zlib
    Codec ID                    : S_HDMV/PGS
    Codec ID/Info               : Picture based subtitle format used on BDs/HD-DVDs
    Duration                    : 1 h 20 min
    Bit rate                    : 25.4 kb/s
    Count of elements           : 1784
    Stream size                 : 14.7 MiB (0%)
    Title                       : Ingles-PGS [CinemaniaHDD]
    Language                    : English
    Default                     : No
    Forced                      : No
    Original source medium      : Blu-ray

    Text #4
    ID                          : 8
    Format                      : UTF-8
    Codec ID                    : S_TEXT/UTF8
    Codec ID/Info               : UTF-8 Plain Text
    Duration                    : 22 min 50 s
    Bit rate                    : 1 b/s
    Count of elements           : 8
    Stream size                 : 299 Bytes (0%)
    Title                       : Forzados-SRT [CinemaniaHDD]
    Language                    : Spanish
    Default                     : Yes
    Forced                      : Yes

    Text #5
    ID                          : 9
    Format                      : UTF-8
    Codec ID                    : S_TEXT/UTF8
    Codec ID/Info               : UTF-8 Plain Text
    Duration                    : 1 h 22 min
    Bit rate                    : 44 b/s
    Count of elements           : 901
    Stream size                 : 26.7 KiB (0%)
    Title                       : Español-SRT [CinemaniaHDD]
    Language                    : Spanish
    Default                     : No
    Forced                      : No

    Menu
    00:00:00.000                : Chapter 01
    00:03:32.087                : Chapter 02
    00:09:25.607                : Chapter 03
    00:14:47.762                : Chapter 04
    00:18:48.294                : Chapter 05
    00:24:06.654                : Chapter 06
    00:29:22.010                : Chapter 07
    00:34:52.048                : Chapter 08
    00:40:31.012                : Chapter 09
    00:44:11.607                : Chapter 10
    00:51:00.266                : Chapter 11
    00:56:55.412                : Chapter 12
    01:03:26.761                : Chapter 13
    01:08:44.662                : Chapter 14
    01:11:41.214                : Chapter 15
    01:18:52.728                : Chapter 16
    01:25:56.401                : Chapter 17
    01:30:26.338                : Chapter 18

  • Peso: 21.3 GiB

Sinopsis

Descargar The Miracle Club (2023) REMUX 1080p Latino. Ballyfermot, Irlanda, 1960. Una comunidad resiliente en las afueras de Dublín marcha al ritmo de su propio compás, arraigada en tradiciones de lealtad, fe y unidad. El sueño tentador para las mujeres de Ballyfermot es saborear la libertad y escapar del desafío de la vida doméstica: ganar una peregrinación a la sagrada ciudad francesa de Lourdes. Con la intervención benévola de su pícaro y rebelde sacerdote, las amigas cercanas Lily, Eileen, Dolly y Sheila son las ‘afortunadas’ en ganar este boleto de por vida en su bulliciosa noche de rifa local.

Español & Ingles [DTS-HD 5.1 Bluray]

Ficha técnica

Video trailer de la película

Enlaces de descarga

Rip de Bluray

Descargar The Miracle Club (2023) REMUX 1080p Latino




Aportes de DPeliculasHDmega la pass es:dpeliculashdmega.org Aportes de CinemaniaHD la pass es:cinemaniahdd.com Aportes recientes:cinemaniahdd.net
Guardado en : Comedia , Drama , Remux

Películas relacionadas

  • Fear (2023) AMZN WEB-DL 1080p Latino

    Fear (2023) AMZN WEB-DL 1080p Latino

    2023
    Fear (2023) AMZN WEB-DL 1080p Latino

    1h 38m 2023

    Una escapada muy necesaria y un fin de semana de celebración se convierte en una pesadilla debido a...

    Director: Deon Taylor

    Género: Drama

    Actores: Whylip Lee

  • Chucky (2023) Temporada 3 WEB-DL 1080p Latino

    Chucky (2023) Temporada 3 WEB-DL 1080p Latino

    2021
    Chucky (2023) Temporada 3 WEB-DL 1080p Latino

    0h 42m 2021

    El infame Chucky se abre paso a cuchilladas hacia la televisión en una nueva y mortífera serie escrita...

    Director: Nick Antosca

    Género: Crimen

    Actores: Zackary Arthur

  • Good Burger 2 (2023) HD 1080p Latino

    Good Burger 2 (2023) HD 1080p Latino

    2023
    Good Burger 2 (2023) HD 1080p Latino

    1h 31m 2023

    Descargar Good Burger 2 (2023) HD 1080p Latino. Después de que su último invento falla, Ed le da la...

    Director: Ross Novie

    Género: Comedia

    Actores: Zoe Saldana

descargar The Miracle Club (2023) REMUX 1080p Latino Full 1080p 1080p gratis, The Miracle Club (2023) REMUX 1080p Latino Full 1080p mega 1 link, The Miracle Club (2023) REMUX 1080p Latino Full 1080p pelicula completa, descargar The Miracle Club (2023) REMUX 1080p Latino Full 1080p gratis en mega.

The Miracle Club (2023) REMUX 1080p Latino pelicula full hd, The Miracle Club (2023) REMUX 1080p Latino mega latino, The Miracle Club (2023) REMUX 1080p Latino 4k latino, The Miracle Club (2023) REMUX 1080p Latino pelicula completa, The Miracle Club (2023) REMUX 1080p Latino descargar gratis, descargar The Miracle Club (2023) REMUX 1080p Latino pelicula latino, The Miracle Club (2023) REMUX 1080p Latino 1 link mega, The Miracle Club (2023) REMUX 1080p Latino 1 link google drive, The Miracle Club (2023) REMUX 1080p Latino hd 1080p latino.
Comentarios 0