×

¿Problemas para descargar con Mozilla, EDGE? Deshabilita la opción "Abrir vinculos en una pestaña nueva" tal como lo muestra ésta imagen.

The Miracle Club (2023) PLACEBO Full HD 1080p Latino

93 vistas

Información de The Miracle Club (2023) PLACEBO Full HD 1080p Latino

Datos de la película

  • Calidad: Full 1080p
  • Audio: Español Latino DTS 5.1 BLURAY - Ingles DTS 5.1 BLURAY
  • Subtitulos: Español Latino PGS - Ingles PGS
  • Resolución: 1920x1080p
  • Formato: MKV
  • Codec: H.264
  • Encoder: Melkor
  • Mediainfo: Clic para Mostrar Datos Ver
  • The Miracle Club (2023) PLACEBO 1080p Latino.mkv
    Format                      : Matroska
    Format version              : Version 4
    File size                   : 6.87 GiB
    Duration                    : 1 h 30 min
    Overall bit rate            : 10.8 Mb/s
    Movie name                  : The Miracle Club (2023) CinemaniaHDD.Net
    Encoded date                : UTC 2023-11-07 19:21:30
    Writing application         : mkvmerge v56.1.0 ('My Friend') 64-bit
    Writing library             : libebml v1.4.2 + libmatroska v1.6.4
    Attachments                 : CINEMANIAHD.png
    Site                        : CinemaniaHDD.Net
    Uploader                    : Melkor

    Video
    ID                          : 1
    Format                      : AVC
    Format/Info                 : Advanced Video Codec
    Format profile              : High@L4.1
    Format settings             : CABAC / 4 Ref Frames
    Format settings, CABAC      : Yes
    Format settings, Reference  : 4 frames
    Codec ID                    : V_MPEG4/ISO/AVC
    Duration                    : 1 h 30 min
    Bit rate                    : 7 811 kb/s
    Width                       : 1 920 pixels
    Height                      : 1 080 pixels
    Display aspect ratio        : 16:9
    Frame rate mode             : Constant
    Frame rate                  : 23.976 (24000/1001) FPS
    Color space                 : YUV
    Chroma subsampling          : 4:2:0
    Bit depth                   : 8 bits
    Scan type                   : Progressive
    Bits/(Pixel*Frame)          : 0.157
    Stream size                 : 4.95 GiB (72%)
    Title                       : Full HD1080p [CinemaniaHDD]
    Writing library             : x264 core 163 r3059 b684ebe0
    Encoding settings           : cabac=1 / ref=4 / deblock=1:0:0 / analyse=0x3:0x133 / me=tesa / subme=11 / psy=1 / psy_rd=1.00:0.00 / mixed_ref=1 / me_range=24 / chroma_me=1 / trellis=2 / 8x8dct=1 / cqm=0 / deadzone=21,11 / fast_pskip=0 / chroma_qp_offset=-2 / threads=24 / lookahead_threads=6 / sliced_threads=0 / nr=0 / decimate=1 / interlaced=0 / bluray_compat=0 / constrained_intra=0 / bframes=16 / b_pyramid=2 / b_adapt=2 / b_bias=0 / direct=3 / weightb=1 / open_gop=0 / weightp=2 / keyint=240 / keyint_min=24 / scenecut=40 / intra_refresh=0 / rc_lookahead=60 / rc=crf / mbtree=1 / crf=19.0 / qcomp=0.60 / qpmin=0 / qpmax=69 / qpstep=4 / vbv_maxrate=62500 / vbv_bufsize=78125 / crf_max=0.0 / nal_hrd=none / filler=0 / ip_ratio=1.40 / aq=1:1.00
    Default                     : Yes
    Forced                      : Yes
    Color range                 : Limited
    Color primaries             : BT.709
    Transfer characteristics    : BT.709
    Matrix coefficients         : BT.709

    Audio #1
    ID                          : 2
    Format                      : DTS
    Format/Info                 : Digital Theater Systems
    Codec ID                    : A_DTS
    Duration                    : 1 h 30 min
    Bit rate mode               : Constant
    Bit rate                    : 1 509 kb/s
    Channel(s)                  : 6 channels
    Channel layout              : C L R Ls Rs LFE
    Sampling rate               : 48.0 kHz
    Frame rate                  : 93.750 FPS (512 SPF)
    Bit depth                   : 24 bits
    Compression mode            : Lossy
    Stream size                 : 976 MiB (14%)
    Title                       : Español Latino [CinemaniaHDD]
    Language                    : Spanish
    Default                     : Yes
    Forced                      : Yes

    Audio #2
    ID                          : 3
    Format                      : DTS
    Format/Info                 : Digital Theater Systems
    Codec ID                    : A_DTS
    Duration                    : 1 h 30 min
    Bit rate mode               : Constant
    Bit rate                    : 1 509 kb/s
    Channel(s)                  : 6 channels
    Channel layout              : C L R Ls Rs LFE
    Sampling rate               : 48.0 kHz
    Frame rate                  : 93.750 FPS (512 SPF)
    Bit depth                   : 24 bits
    Compression mode            : Lossy
    Stream size                 : 976 MiB (14%)
    Title                       : Ingles [CinemaniaHDD]
    Language                    : English
    Default                     : No
    Forced                      : No

    Text #1
    ID                          : 4
    ID in the original source m : 4611 (0x1203)
    Format                      : PGS
    Muxing mode                 : zlib
    Codec ID                    : S_HDMV/PGS
    Codec ID/Info               : Picture based subtitle format used on BDs/HD-DVDs
    Duration                    : 1 h 29 min
    Bit rate                    : 329 b/s
    Count of elements           : 18
    Stream size                 : 217 KiB (0%)
    Title                       : Forzados-PGS [CinemaniaHDD]
    Language                    : Spanish
    Default                     : No
    Forced                      : No
    Original source medium      : Blu-ray

    Text #2
    ID                          : 5
    ID in the original source m : 4610 (0x1202)
    Format                      : PGS
    Muxing mode                 : zlib
    Codec ID                    : S_HDMV/PGS
    Codec ID/Info               : Picture based subtitle format used on BDs/HD-DVDs
    Duration                    : 1 h 29 min
    Bit rate                    : 21.5 kb/s
    Count of elements           : 1804
    Stream size                 : 13.8 MiB (0%)
    Title                       : Español-PGS [CinemaniaHDD]
    Language                    : Spanish
    Default                     : No
    Forced                      : No
    Original source medium      : Blu-ray

    Text #3
    ID                          : 6
    ID in the original source m : 4608 (0x1200)
    Format                      : PGS
    Muxing mode                 : zlib
    Codec ID                    : S_HDMV/PGS
    Codec ID/Info               : Picture based subtitle format used on BDs/HD-DVDs
    Duration                    : 1 h 20 min
    Bit rate                    : 25.4 kb/s
    Count of elements           : 1784
    Stream size                 : 14.7 MiB (0%)
    Title                       : Ingles-PGS [CinemaniaHDD]
    Language                    : English
    Default                     : No
    Forced                      : No
    Original source medium      : Blu-ray

    Text #4
    ID                          : 7
    Format                      : UTF-8
    Codec ID                    : S_TEXT/UTF8
    Codec ID/Info               : UTF-8 Plain Text
    Duration                    : 22 min 50 s
    Bit rate                    : 1 b/s
    Count of elements           : 8
    Stream size                 : 299 Bytes (0%)
    Title                       : Forzados-SRT [CinemaniaHDD]
    Language                    : Spanish
    Default                     : Yes
    Forced                      : Yes

    Text #5
    ID                          : 8
    Format                      : UTF-8
    Codec ID                    : S_TEXT/UTF8
    Codec ID/Info               : UTF-8 Plain Text
    Duration                    : 1 h 22 min
    Bit rate                    : 44 b/s
    Count of elements           : 901
    Stream size                 : 26.7 KiB (0%)
    Title                       : Español-SRT [CinemaniaHDD]
    Language                    : Spanish
    Default                     : No
    Forced                      : No

    Menu
    00:00:00.000                : Chapter 01
    00:03:32.087                : Chapter 02
    00:09:25.607                : Chapter 03
    00:14:47.762                : Chapter 04
    00:18:48.294                : Chapter 05
    00:24:06.654                : Chapter 06
    00:29:22.010                : Chapter 07
    00:34:52.048                : Chapter 08
    00:40:31.012                : Chapter 09
    00:44:11.607                : Chapter 10
    00:51:00.266                : Chapter 11
    00:56:55.412                : Chapter 12
    01:03:26.761                : Chapter 13
    01:08:44.662                : Chapter 14
    01:11:41.214                : Chapter 15
    01:18:52.728                : Chapter 16
    01:25:56.401                : Chapter 17
    01:30:26.338                : Chapter 18

  • Peso: 6.87 GiB

Sinopsis

descargar The Miracle Club (2023) PLACEBO Full HD 1080p Latino. Ballyfermot, Irlanda, 1960. Una comunidad resiliente en las afueras de Dublín marcha al ritmo de su propio compás, arraigada en tradiciones de lealtad, fe y unidad. El sueño tentador para las mujeres de Ballyfermot es saborear la libertad y escapar del desafío de la vida doméstica: ganar una peregrinación a la sagrada ciudad francesa de Lourdes. Con la intervención benévola de su pícaro y rebelde sacerdote, las amigas cercanas Lily, Eileen, Dolly y Sheila son las ‘afortunadas’ en ganar este boleto de por vida en su bulliciosa noche de rifa local.

Ficha técnica

Video trailer de la película

Enlaces de descarga

Rip de Bluray

Descargar The Miracle Club (2023) PLACEBO Full HD 1080p Latino




Aportes de DPeliculasHDmega la pass es:dpeliculashdmega.org Aportes de CinemaniaHD la pass es:cinemaniahdd.com Aportes recientes:cinemaniahdd.net

Películas relacionadas

descargar The Miracle Club (2023) PLACEBO Full HD 1080p Latino Full 1080p 1080p gratis, The Miracle Club (2023) PLACEBO Full HD 1080p Latino Full 1080p mega 1 link, The Miracle Club (2023) PLACEBO Full HD 1080p Latino Full 1080p pelicula completa, descargar The Miracle Club (2023) PLACEBO Full HD 1080p Latino Full 1080p gratis en mega.

The Miracle Club (2023) PLACEBO Full HD 1080p Latino pelicula full hd, The Miracle Club (2023) PLACEBO Full HD 1080p Latino mega latino, The Miracle Club (2023) PLACEBO Full HD 1080p Latino 4k latino, The Miracle Club (2023) PLACEBO Full HD 1080p Latino pelicula completa, The Miracle Club (2023) PLACEBO Full HD 1080p Latino descargar gratis, descargar The Miracle Club (2023) PLACEBO Full HD 1080p Latino pelicula latino, The Miracle Club (2023) PLACEBO Full HD 1080p Latino 1 link mega, The Miracle Club (2023) PLACEBO Full HD 1080p Latino 1 link google drive, The Miracle Club (2023) PLACEBO Full HD 1080p Latino hd 1080p latino.
Comentarios 0