×

¿Problemas para descargar con Mozilla, EDGE? Deshabilita la opción "Abrir vinculos en una pestaña nueva" tal como lo muestra ésta imagen.

La Mexicana (2001) REMUX 1080p Latino

187 vistas

Información de La Mexicana (2001) REMUX 1080p Latino

Datos de la película

  • Calidad: Full 1080p
  • Audio: Español Latino AC3 5.1 DVD - Ingles DTS 5.1 BLURAY
  • Subtitulos: Español Latino SRT - Ingles SRT
  • Resolución: 1920x1080p
  • Formato: MKV
  • Codec: H.264
  • Encoder: CinefiloCool
  • Mediainfo: Clic para Mostrar Datos Ver
  • La Mexicana (2001) REMUX 1080p Latino-CMHDD.mkv
    Format                      : Matroska
    Format version              : Version 4
    File size                   : 28.1 GiB
    Duration                    : 2 h 3 min
    Overall bit rate mode       : Variable
    Overall bit rate            : 32.6 Mb/s
    Movie name                  : The Mexican (2001) CinemaniaHDD.Net
    Encoded date                : UTC 2021-05-15 07:20:09
    Writing application         : mkvmerge v56.1.0 ('My Friend') 64-bit
    Writing library             : libebml v1.4.2 + libmatroska v1.6.4
    Attachments                 : CINEMANIAHD.png

    Video
    ID                          : 1
    Format                      : AVC
    Format/Info                 : Advanced Video Codec
    Format profile              : High@L4.1
    Format settings             : CABAC / 4 Ref Frames
    Format settings, CABAC      : Yes
    Format settings, Reference  : 4 frames
    Codec ID                    : V_MPEG4/ISO/AVC
    Duration                    : 2 h 3 min
    Bit rate mode               : Variable
    Bit rate                    : 29.9 Mb/s
    Maximum bit rate            : 33.0 Mb/s
    Width                       : 1 920 pixels
    Height                      : 1 080 pixels
    Display aspect ratio        : 16:9
    Frame rate mode             : Constant
    Frame rate                  : 23.976 (24000/1001) FPS
    Color space                 : YUV
    Chroma subsampling          : 4:2:0
    Bit depth                   : 8 bits
    Scan type                   : Progressive
    Bits/(Pixel*Frame)          : 0.602
    Stream size                 : 25.8 GiB (92%)
    Title                       : REMUX HD1080p [CinemaniaHDD]
    Language                    : English
    Default                     : Yes
    Forced                      : No
    Color range                 : Limited
    Color primaries             : BT.709
    Transfer characteristics    : BT.709
    Matrix coefficients         : BT.709

    Audio #1
    ID                          : 2
    Format                      : AC-3
    Format/Info                 : Audio Coding 3
    Commercial name             : Dolby Digital
    Codec ID                    : A_AC3
    Duration                    : 2 h 3 min
    Bit rate mode               : Constant
    Bit rate                    : 448 kb/s
    Channel(s)                  : 6 channels
    Channel layout              : L R C LFE Ls Rs
    Sampling rate               : 48.0 kHz
    Frame rate                  : 31.250 FPS (1536 SPF)
    Compression mode            : Lossy
    Stream size                 : 396 MiB (1%)
    Title                       : Español Latino [CinemaniaHDD]
    Language                    : Spanish
    Service kind                : Complete Main
    Default                     : Yes
    Forced                      : No

    Audio #2
    ID                          : 3
    Format                      : DTS XLL
    Format/Info                 : Digital Theater Systems
    Commercial name             : DTS-HD Master Audio
    Codec ID                    : A_DTS
    Duration                    : 2 h 3 min
    Bit rate mode               : Variable
    Bit rate                    : 2 174 kb/s
    Channel(s)                  : 6 channels
    Channel layout              : C L R Ls Rs LFE
    Sampling rate               : 48.0 kHz
    Frame rate                  : 93.750 FPS (512 SPF)
    Bit depth                   : 16 bits
    Compression mode            : Lossless
    Stream size                 : 1.88 GiB (7%)
    Title                       : Ingles [CinemaniaHDD]
    Language                    : English
    Default                     : No
    Forced                      : No

    Text #1
    ID                          : 4
    Format                      : UTF-8
    Codec ID                    : S_TEXT/UTF8
    Codec ID/Info               : UTF-8 Plain Text
    Duration                    : 1 h 18 min
    Bit rate                    : 0 b/s
    Count of elements           : 5
    Stream size                 : 134 Bytes (0%)
    Title                       : Forzados-SRT [CinemaniaHDD]
    Language                    : Spanish
    Default                     : Yes
    Forced                      : No

    Text #2
    ID                          : 5
    Format                      : UTF-8
    Codec ID                    : S_TEXT/UTF8
    Codec ID/Info               : UTF-8 Plain Text
    Duration                    : 2 h 2 min
    Bit rate                    : 49 b/s
    Count of elements           : 1351
    Stream size                 : 44.0 KiB (0%)
    Title                       : Español-SRT [CinemaniaHDD]
    Language                    : Spanish
    Default                     : No
    Forced                      : No

    Text #3
    ID                          : 6
    Format                      : UTF-8
    Codec ID                    : S_TEXT/UTF8
    Codec ID/Info               : UTF-8 Plain Text
    Duration                    : 2 h 2 min
    Bit rate                    : 52 b/s
    Count of elements           : 1343
    Stream size                 : 47.3 KiB (0%)
    Title                       : Ingles-SRT [CinemaniaHDD]
    Language                    : English
    Default                     : No
    Forced                      : No

    Menu
    00:00:00.000                : The Mexican
    00:13:28.265                : Via Con Dios
    00:23:58.019                : El Camino
    00:33:51.738                : Señor Beck
    00:40:45.025                : The Legend of the Pistola
    00:48:35.203                : These Boots
    00:54:51.288                : Sam and Leroy
    01:00:31.919                : Jerry and the Dog
    01:05:15.202                : Trust Issues
    01:10:31.310                : It's The American Way
    01:16:25.747                : A Moment
    01:21:09.865                : The Legend Part Dos
    01:25:17.487                : Three's A Crowd
    01:37:20.667                : Safety Dance
    01:45:14.016                : She's In Vegas
    01:57:40.636                : Why Can't We Be Friends
    02:03:29.193                : Yu're My Guy

  • Peso: 28.1 GiB

Sinopsis

Descargar La Mexicana (2001) REMUX 1080p Latino. Jerry Welbach acaba de recibir dos ultimátum: el primero de su jefe, un mafioso que le encarga viajar a México para recuperar «la Mexicana», una antigua y valiosa pistola, y el segundo de su novia Samantha, que le exige que ponga fin a su relación con la mafia. Jerry piensa que seguir vivo es lo más importante, aunque eso suponga tener problemas con Samantha, así que va a México. Aunque encuentra el arma, llevársela a su jefe es un asunto más complicado. Sobre la pistola pesa una maldición legendaria, ya que fue el regalo de boda que un rico terrateniente hizo a su hija, que murió en trágicas circunstancias. Cuando un asesino a sueldo secuestra a Samantha para hacerse con la pistola, Jerry tendrá motivos para creer en la maldición.

NOTA:
Proximamente para usuarios Free, Disponible Solo para VIP!! 🙂

Ficha técnica

Video trailer de la película

Enlaces de descarga

Rip de Bluray

Descargar La Mexicana (2001) REMUX 1080p Latino




Aportes de DPeliculasHDmega la pass es:dpeliculashdmega.org Aportes de CinemaniaHD la pass es:cinemaniahdd.com
Guardado en : Acción , Comedia , Crimen , Remux , Romance

Películas relacionadas

  • El Perfumista (2022) NF WEB-DL 1080p Latino

    El Perfumista (2022) NF WEB-DL 1080p Latino

    2022
    El Perfumista (2022) NF WEB-DL 1080p Latino

    1h 36m 2022

    Descargar El Perfumista (2022) NF WEB-DL 1080p Latino. Para recuperar su sentido del olfato y el afecto...

    Director: Nils Willbrandt

    Género: Crimen

    Actores: Sólveig Arnarsdóttir

  • La familia Monster (2022) HD 1080p Latino

    La familia Monster (2022) HD 1080p Latino

    2022
    La familia Monster (2022) HD 1080p Latino

    1h 49m 2022

    Descargar La familia Monster (2022) HD 1080p Latino. Reboot de "The Munsters", que sigue las desventuras...

    Director: Rob Zombie

    Género: Comedia

    Actores: Tomas Boykin

  • La familia Monster (2022) REMUX 1080p Latino

    La familia Monster (2022) REMUX 1080p Latino

    2022
    La familia Monster (2022) REMUX 1080p Latino

    1h 49m 2022

    Descargar La familia Monster (2022) REMUX 1080p Latino. Reboot de "The Munsters", que sigue las desventuras...

    Director: Rob Zombie

    Género: Comedia

    Actores: Tomas Boykin

descargar La Mexicana (2001) REMUX 1080p Latino Full 1080p 1080p gratis, La Mexicana (2001) REMUX 1080p Latino Full 1080p mega 1 link, La Mexicana (2001) REMUX 1080p Latino Full 1080p pelicula completa, descargar La Mexicana (2001) REMUX 1080p Latino Full 1080p gratis en mega.

La Mexicana (2001) REMUX 1080p Latino pelicula full hd, La Mexicana (2001) REMUX 1080p Latino mega latino, La Mexicana (2001) REMUX 1080p Latino 4k latino, La Mexicana (2001) REMUX 1080p Latino pelicula completa, La Mexicana (2001) REMUX 1080p Latino descargar gratis, descargar La Mexicana (2001) REMUX 1080p Latino pelicula latino, La Mexicana (2001) REMUX 1080p Latino 1 link mega, La Mexicana (2001) REMUX 1080p Latino 1 link google drive, La Mexicana (2001) REMUX 1080p Latino hd 1080p latino.
Comentarios 0