×

¿Problemas para descargar con Mozilla, EDGE? Deshabilita la opción "Abrir vinculos en una pestaña nueva" tal como lo muestra ésta imagen.

La Mexicana (2001) Full HD 1080p Latino

268 vistas

Información de La Mexicana (2001) Full HD 1080p Latino

Datos de la película

  • Calidad: Full 1080p
  • Audio: Español Latino AC3 5.1 DVD - Ingles DTS 5.1 BLURAY
  • Subtitulos: Español Latino SRT - Ingles SRT
  • Resolución: 1920x1080p
  • Formato: MKV
  • Codec: H.264
  • Encoder: CinefiloCool
  • Mediainfo: Clic para Mostrar Datos Ver
  • La Mexicana (2001) Full HD 1080p Latino-CMHDD.mkv
    Format                      : Matroska
    Format version              : Version 4
    File size                   : 9.05 GiB
    Duration                    : 2 h 3 min
    Overall bit rate            : 10.5 Mb/s
    Movie name                  : The Mexican (2001) CinemaniaHDD.Net
    Encoded date                : UTC 2021-05-15 16:55:35
    Writing application         : mkvmerge v56.1.0 ('My Friend') 64-bit
    Writing library             : libebml v1.4.2 + libmatroska v1.6.4
    Attachments                 : CINEMANIAHD.png

    Video
    ID                          : 1
    Format                      : AVC
    Format/Info                 : Advanced Video Codec
    Format profile              : High@L4.1
    Format settings             : CABAC / 4 Ref Frames
    Format settings, CABAC      : Yes
    Format settings, Reference  : 4 frames
    Codec ID                    : V_MPEG4/ISO/AVC
    Duration                    : 2 h 3 min
    Bit rate                    : 8 534 kb/s
    Width                       : 1 920 pixels
    Height                      : 1 080 pixels
    Display aspect ratio        : 16:9
    Frame rate mode             : Constant
    Frame rate                  : 23.976 (24000/1001) FPS
    Color space                 : YUV
    Chroma subsampling          : 4:2:0
    Bit depth                   : 8 bits
    Scan type                   : Progressive
    Bits/(Pixel*Frame)          : 0.172
    Stream size                 : 7.36 GiB (81%)
    Title                       : Full HD1080p [CinemaniaHDD]
    Writing library             : x264 core 157 r2935 545de2f
    Encoding settings           : cabac=1 / ref=4 / deblock=1:0:0 / analyse=0x3:0x133 / me=tesa / subme=11 / psy=1 / psy_rd=1.00:0.00 / mixed_ref=1 / me_range=24 / chroma_me=1 / trellis=2 / 8x8dct=1 / cqm=0 / deadzone=21,11 / fast_pskip=0 / chroma_qp_offset=-2 / threads=24 / lookahead_threads=6 / sliced_threads=0 / nr=0 / decimate=1 / interlaced=0 / bluray_compat=0 / constrained_intra=0 / bframes=16 / b_pyramid=2 / b_adapt=2 / b_bias=0 / direct=3 / weightb=1 / open_gop=0 / weightp=2 / keyint=240 / keyint_min=24 / scenecut=40 / intra_refresh=0 / rc_lookahead=60 / rc=crf / mbtree=1 / crf=20.0 / qcomp=0.60 / qpmin=0 / qpmax=69 / qpstep=4 / vbv_maxrate=62500 / vbv_bufsize=78125 / crf_max=0.0 / nal_hrd=none / filler=0 / ip_ratio=1.40 / aq=1:1.00
    Default                     : Yes
    Forced                      : Yes
    Color range                 : Limited
    Color primaries             : BT.709
    Transfer characteristics    : BT.709
    Matrix coefficients         : BT.709

    Audio #1
    ID                          : 2
    Format                      : AC-3
    Format/Info                 : Audio Coding 3
    Commercial name             : Dolby Digital
    Codec ID                    : A_AC3
    Duration                    : 2 h 3 min
    Bit rate mode               : Constant
    Bit rate                    : 448 kb/s
    Channel(s)                  : 6 channels
    Channel layout              : L R C LFE Ls Rs
    Sampling rate               : 48.0 kHz
    Frame rate                  : 31.250 FPS (1536 SPF)
    Compression mode            : Lossy
    Stream size                 : 396 MiB (4%)
    Title                       : Español Latino [CinemaniaHDD]
    Language                    : Spanish
    Service kind                : Complete Main
    Default                     : Yes
    Forced                      : Yes

    Audio #2
    ID                          : 3
    Format                      : DTS
    Format/Info                 : Digital Theater Systems
    Codec ID                    : A_DTS
    Duration                    : 2 h 3 min
    Bit rate mode               : Constant
    Bit rate                    : 1 509 kb/s
    Channel(s)                  : 6 channels
    Channel layout              : C L R Ls Rs LFE
    Sampling rate               : 48.0 kHz
    Frame rate                  : 93.750 FPS (512 SPF)
    Bit depth                   : 24 bits
    Compression mode            : Lossy
    Stream size                 : 1.30 GiB (14%)
    Title                       : Ingles [CinemaniaHDD]
    Language                    : English
    Default                     : No
    Forced                      : No

    Text #1
    ID                          : 4
    Format                      : UTF-8
    Codec ID                    : S_TEXT/UTF8
    Codec ID/Info               : UTF-8 Plain Text
    Duration                    : 1 h 18 min
    Bit rate                    : 0 b/s
    Count of elements           : 5
    Stream size                 : 134 Bytes (0%)
    Title                       : Forzados-SRT [CinemaniaHDD]
    Language                    : Spanish
    Default                     : Yes
    Forced                      : Yes

    Text #2
    ID                          : 5
    Format                      : UTF-8
    Codec ID                    : S_TEXT/UTF8
    Codec ID/Info               : UTF-8 Plain Text
    Duration                    : 2 h 2 min
    Bit rate                    : 49 b/s
    Count of elements           : 1351
    Stream size                 : 44.0 KiB (0%)
    Title                       : Español-SRT [CinemaniaHDD]
    Language                    : Spanish
    Default                     : No
    Forced                      : No

    Text #3
    ID                          : 6
    Format                      : UTF-8
    Codec ID                    : S_TEXT/UTF8
    Codec ID/Info               : UTF-8 Plain Text
    Duration                    : 2 h 2 min
    Bit rate                    : 52 b/s
    Count of elements           : 1343
    Stream size                 : 47.3 KiB (0%)
    Title                       : Ingles-SRT [CinemaniaHDD]
    Language                    : English
    Default                     : No
    Forced                      : No

    Menu
    00:00:00.000                : The Mexican
    00:13:28.265                : Via Con Dios
    00:23:58.019                : El Camino
    00:33:51.738                : Señor Beck
    00:40:45.025                : The Legend of the Pistola
    00:48:35.203                : These Boots
    00:54:51.288                : Sam and Leroy
    01:00:31.919                : Jerry and the Dog
    01:05:15.202                : Trust Issues
    01:10:31.310                : It's The American Way
    01:16:25.747                : A Moment
    01:21:09.865                : The Legend Part Dos
    01:25:17.487                : Three's A Crowd
    01:37:20.667                : Safety Dance
    01:45:14.016                : She's In Vegas
    01:57:40.636                : Why Can't We Be Friends
    02:03:29.193                : Yu're My Guy

  • Peso: 9.05 GiB

Sinopsis

Descargar La Mexicana (2001) Full HD 1080p Latino. Jerry Welbach acaba de recibir dos ultimátum: el primero de su jefe, un mafioso que le encarga viajar a México para recuperar «la Mexicana», una antigua y valiosa pistola, y el segundo de su novia Samantha, que le exige que ponga fin a su relación con la mafia. Jerry piensa que seguir vivo es lo más importante, aunque eso suponga tener problemas con Samantha, así que va a México. Aunque encuentra el arma, llevársela a su jefe es un asunto más complicado. Sobre la pistola pesa una maldición legendaria, ya que fue el regalo de boda que un rico terrateniente hizo a su hija, que murió en trágicas circunstancias. Cuando un asesino a sueldo secuestra a Samantha para hacerse con la pistola, Jerry tendrá motivos para creer en la maldición.

Ficha técnica

Video trailer de la película

Enlaces de descarga

Rip de Bluray

Descargar La Mexicana (2001) Full HD 1080p Latino




Aportes de DPeliculasHDmega la pass es:dpeliculashdmega.org Aportes de CinemaniaHD la pass es:cinemaniahdd.com

Películas relacionadas

descargar La Mexicana (2001) Full HD 1080p Latino Full 1080p 1080p gratis, La Mexicana (2001) Full HD 1080p Latino Full 1080p mega 1 link, La Mexicana (2001) Full HD 1080p Latino Full 1080p pelicula completa, descargar La Mexicana (2001) Full HD 1080p Latino Full 1080p gratis en mega.

La Mexicana (2001) Full HD 1080p Latino pelicula full hd, La Mexicana (2001) Full HD 1080p Latino mega latino, La Mexicana (2001) Full HD 1080p Latino 4k latino, La Mexicana (2001) Full HD 1080p Latino pelicula completa, La Mexicana (2001) Full HD 1080p Latino descargar gratis, descargar La Mexicana (2001) Full HD 1080p Latino pelicula latino, La Mexicana (2001) Full HD 1080p Latino 1 link mega, La Mexicana (2001) Full HD 1080p Latino 1 link google drive, La Mexicana (2001) Full HD 1080p Latino hd 1080p latino.
Comentarios 0