×

¿Problemas para descargar con Mozilla, EDGE? Deshabilita la opción "Abrir vinculos en una pestaña nueva" tal como lo muestra ésta imagen.

Los mensajeros (2007) REMUX 1080p Latino

767 vistas

Información de Los mensajeros (2007) REMUX 1080p Latino

Datos de la película

  • Calidad: Full 1080p
  • Audio: Se especifica abajo de la Sinopsis
  • Subtitulos: Español Latino SRT
  • Resolución: 1920x1080p
  • Formato: MKV
  • Codec: H.264
  • Encoder: CinefiloCool
  • Mediainfo: Clic para Mostrar Datos Ver
  • Los Mensajeros (2007) REMUX 1080p Latino-CMHDD.mkv
    Format                      : Matroska
    Format version              : Version 4
    File size                   : 20.1 GiB
    Duration                    : 1 h 30 min
    Overall bit rate mode       : Variable
    Overall bit rate            : 31.9 Mb/s
    Movie name                  : CinemaniaHDD.Net
    Encoded date                : UTC 2020-01-25 04:41:25
    Writing application         : mkvmerge v42.0.0 ('Overtime') 64-bit
    Writing library             : libebml v1.3.10 + libmatroska v1.5.2
    Attachments                 : CINEMANIAHD.png

    Video
    ID                          : 1
    Format                      : AVC
    Format/Info                 : Advanced Video Codec
    Format profile              : High@L4.1
    Format settings             : CABAC / 2 Ref Frames
    Format settings, CABAC      : Yes
    Format settings, ReFrames   : 2 frames
    Codec ID                    : V_MPEG4/ISO/AVC
    Duration                    : 1 h 30 min
    Bit rate mode               : Variable
    Bit rate                    : 29.4 Mb/s
    Width                       : 1 920 pixels
    Height                      : 1 080 pixels
    Display aspect ratio        : 16:9
    Frame rate mode             : Constant
    Frame rate                  : 23.976 (24000/1001) FPS
    Color space                 : YUV
    Chroma subsampling          : 4:2:0
    Bit depth                   : 8 bits
    Scan type                   : Progressive
    Bits/(Pixel*Frame)          : 0.592
    Stream size                 : 18.6 GiB (92%)
    Title                       : Full HD1080p [REMUX]
    Default                     : Yes
    Forced                      : Yes

    Audio #1
    ID                          : 2
    Format                      : AC-3
    Format/Info                 : Audio Coding 3
    Commercial name             : Dolby Digital
    Codec ID                    : A_AC3
    Duration                    : 1 h 30 min
    Bit rate mode               : Constant
    Bit rate                    : 256 kb/s
    Channel(s)                  : 2 channels
    Channel layout              : L R
    Sampling rate               : 48.0 kHz
    Frame rate                  : 31.250 FPS (1536 SPF)
    Bit depth                   : 16 bits
    Compression mode            : Lossy
    Stream size                 : 166 MiB (1%)
    Title                       : AC3_2.0_Web_Esp
    Language                    : Spanish
    Service kind                : Complete Main
    Default                     : Yes
    Forced                      : Yes

    Audio #2
    ID                          : 3
    Format                      : DTS XLL
    Format/Info                 : Digital Theater Systems
    Commercial name             : DTS-HD Master Audio
    Codec ID                    : A_DTS
    Duration                    : 1 h 30 min
    Bit rate mode               : Variable
    Bit rate                    : 2 159 kb/s
    Channel(s)                  : 6 channels
    Channel layout              : C L R Ls Rs LFE
    Sampling rate               : 48.0 kHz
    Frame rate                  : 93.750 FPS (512 SPF)
    Bit depth                   : 16 bits
    Compression mode            : Lossless
    Stream size                 : 1.36 GiB (7%)
    Title                       : DTS-HD_5.1_Bluray_Eng
    Language                    : English
    Default                     : No
    Forced                      : No

    Text #1
    ID                          : 4
    Format                      : UTF-8
    Codec ID                    : S_TEXT/UTF8
    Codec ID/Info               : UTF-8 Plain Text
    Duration                    : 1 h 23 min
    Bit rate                    : 28 b/s
    Count of elements           : 570
    Stream size                 : 17.6 KiB (0%)
    Title                       : Sub_Esp
    Language                    : Spanish
    Default                     : No
    Forced                      : No

    Text #2
    ID                          : 5
    Format                      : PGS
    Muxing mode                 : zlib
    Codec ID                    : S_HDMV/PGS
    Codec ID/Info               : Picture based subtitle format used on BDs/HD-DVDs
    Duration                    : 1 h 23 min
    Bit rate                    : 18.0 kb/s
    Count of elements           : 1128
    Stream size                 : 10.7 MiB (0%)
    Title                       : Sub_Eng [PGS]
    Language                    : English
    Default                     : No
    Forced                      : No

    Menu
    00:00:00.000                : en:Sending a Message
    00:05:45.666                : en:No Signal
    00:07:46.266                : en:New Backyard
    00:10:49.199                : en:Tractor Comes Alive
    00:13:33.032                : en:A Little Stability
    00:15:50.532                : en:Ben Sees
    00:18:35.365                : en:New Things
    00:20:04.231                : en:Boy in the Spoon
    00:23:10.097                : en:All in the Wrist
    00:26:35.530                : en:Helping Around the House
    00:28:13.030                : en:In the Cellar
    00:31:19.663                : en:Bird Trouble
    00:34:13.329                : en:Harvest Plans
    00:35:42.262                : en:Left Alone
    00:37:05.028                : en:Angry Forces
    00:40:41.661                : en:Going to Try
    00:43:38.861                : en:"Where are they?"
    00:48:06.727                : en:Haunted House
    00:50:23.393                : en:Finding Clues
    00:53:35.293                : en:Something About the Land
    00:57:17.293                : en:Barn Investigation
    01:00:05.226                : en:Emotional Issues
    01:05:37.225                : en:Keeping it Together
    01:07:55.525                : en:Ghostly Truth
    01:10:50.058                : en:Fierce Flashbacks
    01:13:22.191                : en:Search for Family
    01:18:32.557                : en:Drowning the Past
    01:22:10.123                : en:Cleaning the Mess

  • Peso: 20.1 GiB

Sinopsis

Descargar Los mensajeros (2007) REMUX 1080p Latino. La familia Solomon abandona Chicago y se establece en una apartada granja de girasoles en Dakota del Norte. La armonía se ve interrumpida cuando Jess, la hija mayor, y su hermano Ben, de 3 años, comienzan a ver siniestras apariciones, invisibles para todos los demás. Cuando Jess intente advertir a sus padres de la terrible amenaza que les rodea, su credibilidad será puesta en duda. Pero los espectros, que parecen venir de otra dimensión, se vuelven cada vez más violentos, y quizá ya sea demasiado tarde.

Audio Español Latino AC3 2.0 AMZN – Ingles DTS-HD 5.1 Bluray
Audio Latino: 
Tr3vor Thanks!!!

Ficha técnica

Video trailer de la película

Enlaces de descarga

Rip de Bluray

Descargar Los mensajeros (2007) REMUX 1080p Latino




Aportes de DPeliculasHDmega la pass es:dpeliculashdmega.org Aportes de CinemaniaHD la pass es:cinemaniahdd.com
Guardado en : Misterio , Remux , Suspenso , Terror

Películas relacionadas

descargar Los mensajeros (2007) REMUX 1080p Latino Full 1080p 1080p gratis, Los mensajeros (2007) REMUX 1080p Latino Full 1080p mega 1 link, Los mensajeros (2007) REMUX 1080p Latino Full 1080p pelicula completa, descargar Los mensajeros (2007) REMUX 1080p Latino Full 1080p gratis en mega.

Los mensajeros (2007) REMUX 1080p Latino pelicula full hd, Los mensajeros (2007) REMUX 1080p Latino mega latino, Los mensajeros (2007) REMUX 1080p Latino 4k latino, Los mensajeros (2007) REMUX 1080p Latino pelicula completa, Los mensajeros (2007) REMUX 1080p Latino descargar gratis, descargar Los mensajeros (2007) REMUX 1080p Latino pelicula latino, Los mensajeros (2007) REMUX 1080p Latino 1 link mega, Los mensajeros (2007) REMUX 1080p Latino 1 link google drive, Los mensajeros (2007) REMUX 1080p Latino hd 1080p latino.
Comentarios 0