×

¿Problemas para descargar con Mozilla, EDGE? Deshabilita la opción "Abrir vinculos en una pestaña nueva" tal como lo muestra ésta imagen.

Los mensajeros (2007) 1080p Latino

1.073 vistas

Información de Los mensajeros (2007) 1080p Latino

Datos de la película

  • Calidad: 1080p
  • Audio: Se especifica abajo de la Sinopsis
  • Subtitulos: Español Latino SRT - Ingles SRT
  • Resolución: 1920x1036p
  • Formato: MKV
  • Codec: H.264
  • Encoder: CinefiloCool
  • Mediainfo: Clic para Mostrar Datos Ver
  • Los Mensajeros (2007) 1080p Latino-CMHDD.mkv
    Format                      : Matroska
    Format version              : Version 4
    File size                   : 2.65 GiB
    Duration                    : 1 h 30 min
    Overall bit rate            : 4 202 kb/s
    Movie name                  : CinemaniaHDD.Net
    Encoded date                : UTC 2020-01-25 16:03:26
    Writing application         : mkvmerge v42.0.0 ('Overtime') 64-bit
    Writing library             : libebml v1.3.10 + libmatroska v1.5.2
    Attachments                 : CINEMANIAHD.png

    Video
    ID                          : 1
    Format                      : AVC
    Format/Info                 : Advanced Video Codec
    Format profile              : High@L4.1
    Format settings             : CABAC / 4 Ref Frames
    Format settings, CABAC      : Yes
    Format settings, ReFrames   : 4 frames
    Codec ID                    : V_MPEG4/ISO/AVC
    Duration                    : 1 h 30 min
    Bit rate                    : 3 500 kb/s
    Width                       : 1 920 pixels
    Height                      : 1 036 pixels
    Display aspect ratio        : 1.85:1
    Frame rate mode             : Constant
    Frame rate                  : 23.976 (24000/1001) FPS
    Color space                 : YUV
    Chroma subsampling          : 4:2:0
    Bit depth                   : 8 bits
    Scan type                   : Progressive
    Bits/(Pixel*Frame)          : 0.073
    Stream size                 : 2.21 GiB (83%)
    Title                       : HD1080p [Bluray]
    Writing library             : x264 core 157 r2935 545de2f
    Encoding settings           : cabac=1 / ref=4 / deblock=1:-2:-2 / analyse=0x3:0x133 / me=umh / subme=9 / psy=1 / psy_rd=1.00:0.25 / mixed_ref=1 / me_range=16 / chroma_me=1 / trellis=2 / 8x8dct=1 / cqm=0 / deadzone=6,6 / fast_pskip=1 / chroma_qp_offset=-4 / threads=32 / lookahead_threads=2 / sliced_threads=0 / nr=0 / decimate=0 / interlaced=0 / bluray_compat=0 / constrained_intra=0 / bframes=3 / b_pyramid=2 / b_adapt=2 / b_bias=0 / direct=3 / weightb=1 / open_gop=0 / weightp=2 / keyint=240 / keyint_min=24 / scenecut=40 / intra_refresh=0 / rc_lookahead=60 / rc=2pass / mbtree=1 / bitrate=3500 / ratetol=1.0 / qcomp=0.80 / qpmin=0 / qpmax=69 / qpstep=4 / cplxblur=20.0 / qblur=0.5 / vbv_maxrate=62500 / vbv_bufsize=78125 / nal_hrd=none / filler=0 / ip_ratio=1.10 / aq=1:0.50
    Default                     : Yes
    Forced                      : Yes
    Color range                 : Limited
    Color primaries             : BT.709
    Transfer characteristics    : BT.709
    Matrix coefficients         : BT.709

    Audio #1
    ID                          : 2
    Format                      : AC-3
    Format/Info                 : Audio Coding 3
    Commercial name             : Dolby Digital
    Codec ID                    : A_AC3
    Duration                    : 1 h 30 min
    Bit rate mode               : Constant
    Bit rate                    : 256 kb/s
    Channel(s)                  : 2 channels
    Channel layout              : L R
    Sampling rate               : 48.0 kHz
    Frame rate                  : 31.250 FPS (1536 SPF)
    Bit depth                   : 16 bits
    Compression mode            : Lossy
    Stream size                 : 166 MiB (6%)
    Title                       : AC3_2.0_Web_Esp
    Language                    : Spanish
    Service kind                : Complete Main
    Default                     : Yes
    Forced                      : Yes

    Audio #2
    ID                          : 3
    Format                      : AC-3
    Format/Info                 : Audio Coding 3
    Commercial name             : Dolby Digital
    Codec ID                    : A_AC3
    Duration                    : 1 h 30 min
    Bit rate mode               : Constant
    Bit rate                    : 448 kb/s
    Channel(s)                  : 6 channels
    Channel layout              : L R C LFE Ls Rs
    Sampling rate               : 48.0 kHz
    Frame rate                  : 31.250 FPS (1536 SPF)
    Bit depth                   : 16 bits
    Compression mode            : Lossy
    Stream size                 : 290 MiB (11%)
    Title                       : AC3_5.1_Bluray_Eng
    Language                    : English
    Service kind                : Complete Main
    Default                     : No
    Forced                      : No

    Text #1
    ID                          : 4
    Format                      : UTF-8
    Codec ID                    : S_TEXT/UTF8
    Codec ID/Info               : UTF-8 Plain Text
    Duration                    : 1 h 23 min
    Bit rate                    : 28 b/s
    Count of elements           : 570
    Stream size                 : 17.6 KiB (0%)
    Title                       : Sub_Esp
    Language                    : Spanish
    Default                     : No
    Forced                      : No

    Text #2
    ID                          : 5
    Format                      : UTF-8
    Codec ID                    : S_TEXT/UTF8
    Codec ID/Info               : UTF-8 Plain Text
    Duration                    : 1 h 23 min
    Bit rate                    : 27 b/s
    Count of elements           : 563
    Stream size                 : 16.7 KiB (0%)
    Title                       : Sub_Eng
    Language                    : English
    Default                     : No
    Forced                      : No

    Menu
    00:00:00.000                : :Sending a Message
    00:05:45.679                : :No Signal
    00:07:46.341                : :New Backyard
    00:10:49.232                : :Tractor Comes Alive
    00:13:33.062                : :A Little Stability
    00:15:50.575                : :Ben Sees
    00:18:35.406                : :New Things
    00:20:04.245                : :Boy in the Spoon
    00:23:10.097                : :All in the Wrist
    00:26:35.552                : :Helping Around the House
    00:28:13.108                : :In the Cellar
    00:31:19.669                : :Bird Trouble
    00:34:13.343                : :Harvest Plans
    00:35:42.307                : :Left Alone
    00:37:05.056                : :Angry Forces
    00:40:41.731                : :Going to Try
    00:43:38.908                : :"Where are they?"
    00:48:06.801                : :Haunted House
    00:50:23.395                : :Finding Clues
    00:53:35.295                : :Something About the Land
    00:57:17.351                : :Barn Investigation
    01:00:05.268                : :Emotional Issues
    01:05:37.267                : :Keeping it Together
    01:07:55.572                : :Ghostly Truth
    01:10:50.079                : :Fierce Flashbacks
    01:13:22.231                : :Search for Family
    01:18:32.583                : :Drowning the Past
    01:22:10.134                : :Cleaning the Mess

  • Peso: 2.65 GiB

Sinopsis

Descargar Los mensajeros (2007) 1080p Latino. La familia Solomon abandona Chicago y se establece en una apartada granja de girasoles en Dakota del Norte. La armonía se ve interrumpida cuando Jess, la hija mayor, y su hermano Ben, de 3 años, comienzan a ver siniestras apariciones, invisibles para todos los demás. Cuando Jess intente advertir a sus padres de la terrible amenaza que les rodea, su credibilidad será puesta en duda. Pero los espectros, que parecen venir de otra dimensión, se vuelven cada vez más violentos, y quizá ya sea demasiado tarde.

Audio Español Latino AC3 2.0 AMZN – Ingles AC3 5.1 Bluray
Audio Latino: 
Tr3vor Thanks!!!

Ficha técnica

Video trailer de la película

Enlaces de descarga

Rip de Bluray

Descargar Los mensajeros (2007) 1080p Latino




Aportes de DPeliculasHDmega la pass es:dpeliculashdmega.org Aportes de CinemaniaHD la pass es:cinemaniahdd.com
Guardado en : HD 1080p , Misterio , Suspenso , Terror

Películas relacionadas

  • Jaula Mental (2022) HD 1080p Latino

    Jaula Mental (2022) HD 1080p Latino

    2022
    Jaula Mental (2022) HD 1080p Latino

    1h 47m 2022

    Descargar Jaula Mental (2022) HD 1080p Latino. Cuando un asesino que imita otros crímenes comienza a...

    Director: Mauro Borrelli

    Género: Crimen

    Actores: Victoria Fox

  • Jaula Mental (2022) PLACEBO Full HD 1080p Latino

    Jaula Mental (2022) PLACEBO Full HD 1080p Latino

    2022
    Jaula Mental (2022) PLACEBO Full HD 1080p Latino

    1h 47m 2022

    Descargar Jaula Mental (2022) PLACEBO Full HD 1080p Latino. Cuando un asesino que imita otros crímenes...

    Director: Mauro Borrelli

    Género: Crimen

    Actores: Victoria Fox

  • Jaula Mental (2022) REMUX 1080p Latino

    Jaula Mental (2022) REMUX 1080p Latino

    2022
    Jaula Mental (2022) REMUX 1080p Latino

    1h 47m 2022

    Descargar Jaula Mental (2022) REMUX 1080p Latino. Cuando un asesino que imita otros crímenes comienza...

    Director: Mauro Borrelli

    Género: Crimen

    Actores: Victoria Fox

  • Transfusion (2023) HD 1080p Latino

    Transfusion (2023) HD 1080p Latino

    2023
    Transfusion (2023) HD 1080p Latino

    1h 45m 2023

    Descargar Transfusion (2023) HD 1080p Latino. Un antiguo agente de las Fuerzas Especiales se ve empujado...

    Director: Matt Nable

    Género: Crimen

    Actores: Trystan Go

  • Transfusion (2023) PLACEBO Full HD 1080p Latino

    Transfusion (2023) PLACEBO Full HD 1080p Latino

    2023
    Transfusion (2023) PLACEBO Full HD 1080p Latino

    1h 45m 2023

    Descargar Transfusion (2023) PLACEBO Full HD 1080p Latino. Un antiguo agente de las Fuerzas Especiales...

    Director: Matt Nable

    Género: Crimen

    Actores: Trystan Go

descargar Los mensajeros (2007) 1080p Latino 1080p 1080p gratis, Los mensajeros (2007) 1080p Latino 1080p mega 1 link, Los mensajeros (2007) 1080p Latino 1080p pelicula completa, descargar Los mensajeros (2007) 1080p Latino 1080p gratis en mega.

Los mensajeros (2007) 1080p Latino pelicula full hd, Los mensajeros (2007) 1080p Latino mega latino, Los mensajeros (2007) 1080p Latino 4k latino, Los mensajeros (2007) 1080p Latino pelicula completa, Los mensajeros (2007) 1080p Latino descargar gratis, descargar Los mensajeros (2007) 1080p Latino pelicula latino, Los mensajeros (2007) 1080p Latino 1 link mega, Los mensajeros (2007) 1080p Latino 1 link google drive, Los mensajeros (2007) 1080p Latino hd 1080p latino.
Comentarios 0