×

¿Problemas para descargar con Mozilla, EDGE? Deshabilita la opción "Abrir vinculos en una pestaña nueva" tal como lo muestra ésta imagen.

The Mermaid: Lake of the Dead (2018) Full HD 1080p Latino

2.241 vistas

Información de The Mermaid: Lake of the Dead (2018) Full HD 1080p Latino

Datos de la película

  • Calidad: Full 1080p
  • Audio: Se especifica abajo de la Sinopsis
  • Subtitulos: Español Latino SRT
  • Resolución: 1920x1080p
  • Formato: MKV
  • Codec: H.264
  • Encoder: 4.41 GiB
  • Mediainfo: Clic para Mostrar Datos Ver
  • The Mermaid Lake Of The Dead (2018) FULL HD 1080p Latino-CMHDD.mkv
    Format                      : Matroska
    Format version              : Version 4
    File size                   : 4.41 GiB
    Duration                    : 1 h 26 min
    Overall bit rate            : 7 258 kb/s
    Movie name                  : CinemaniaHDD.Net
    Encoded date                : UTC 2019-07-10 05:41:29
    Writing application         : mkvmerge v35.0.0 ('All The Love In The World') 64-bit
    Writing library             : libebml v1.3.9 + libmatroska v1.5.2
    Attachments                 : CINEMANIAHD.png

    Video
    ID                          : 1
    Format                      : AVC
    Format/Info                 : Advanced Video Codec
    Format profile              : High@L4.1
    Format settings             : CABAC / 4 Ref Frames
    Format settings, CABAC      : Yes
    Format settings, ReFrames   : 4 frames
    Codec ID                    : V_MPEG4/ISO/AVC
    Duration                    : 1 h 26 min
    Bit rate                    : 5 490 kb/s
    Width                       : 1 920 pixels
    Height                      : 1 080 pixels
    Display aspect ratio        : 16:9
    Frame rate mode             : Constant
    Frame rate                  : 23.976 (24000/1001) FPS
    Color space                 : YUV
    Chroma subsampling          : 4:2:0
    Bit depth                   : 8 bits
    Scan type                   : Progressive
    Bits/(Pixel*Frame)          : 0.110
    Stream size                 : 3.34 GiB (76%)
    Title                       : Full HD1080p [Bluray]
    Writing library             : x264 core 157 r2935 545de2f
    Encoding settings           : cabac=1 / ref=4 / deblock=1:0:0 / analyse=0x3:0x133 / me=tesa / subme=11 / psy=1 / psy_rd=1.00:0.00 / mixed_ref=1 / me_range=24 / chroma_me=1 / trellis=2 / 8x8dct=1 / cqm=0 / deadzone=21,11 / fast_pskip=0 / chroma_qp_offset=-2 / threads=34 / lookahead_threads=8 / sliced_threads=0 / nr=0 / decimate=1 / interlaced=0 / bluray_compat=0 / constrained_intra=0 / bframes=16 / b_pyramid=2 / b_adapt=2 / b_bias=0 / direct=3 / weightb=1 / open_gop=0 / weightp=2 / keyint=240 / keyint_min=24 / scenecut=40 / intra_refresh=0 / rc_lookahead=60 / rc=crf / mbtree=1 / crf=19.0 / qcomp=0.60 / qpmin=0 / qpmax=69 / qpstep=4 / vbv_maxrate=62500 / vbv_bufsize=78125 / crf_max=0.0 / nal_hrd=none / filler=0 / ip_ratio=1.40 / aq=1:1.00
    Default                     : Yes
    Forced                      : Yes
    Color range                 : Limited
    Color primaries             : BT.709
    Transfer characteristics    : BT.709
    Matrix coefficients         : BT.709

    Audio #1
    ID                          : 2
    Format                      : AC-3
    Format/Info                 : Audio Coding 3
    Commercial name             : Dolby Digital
    Codec ID                    : A_AC3
    Duration                    : 1 h 26 min
    Bit rate mode               : Constant
    Bit rate                    : 256 kb/s
    Channel(s)                  : 2 channels
    Channel layout              : L R
    Sampling rate               : 48.0 kHz
    Frame rate                  : 31.250 FPS (1536 SPF)
    Bit depth                   : 16 bits
    Compression mode            : Lossy
    Stream size                 : 159 MiB (4%)
    Title                       : AC3_2.0_Captura_Esp
    Language                    : Spanish
    Service kind                : Complete Main
    Default                     : Yes
    Forced                      : Yes

    Audio #2
    ID                          : 3
    Format                      : DTS
    Format/Info                 : Digital Theater Systems
    Codec ID                    : A_DTS
    Duration                    : 1 h 26 min
    Bit rate mode               : Constant
    Bit rate                    : 1 509 kb/s
    Channel(s)                  : 6 channels
    Channel layout              : C L R Ls Rs LFE
    Sampling rate               : 48.0 kHz
    Frame rate                  : 93.750 FPS (512 SPF)
    Bit depth                   : 24 bits
    Compression mode            : Lossy
    Stream size                 : 939 MiB (21%)
    Title                       : DTS_5.1_Bluray_Rus
    Language                    : Russian
    Default                     : No
    Forced                      : No

    Text
    ID                          : 4
    Format                      : UTF-8
    Codec ID                    : S_TEXT/UTF8
    Codec ID/Info               : UTF-8 Plain Text
    Duration                    : 1 h 20 min
    Bit rate                    : 26 b/s
    Count of elements           : 542
    Stream size                 : 15.4 KiB (0%)
    Title                       : Sub_Esp
    Language                    : Spanish
    Default                     : No
    Forced                      : No

    Menu
    00:00:00.000                : :Chapter 1
    00:04:59.549                : :Chapter 2
    00:14:02.216                : :Chapter 3
    00:21:24.658                : :Chapter 4
    00:29:42.948                : :Chapter 5
    00:37:02.429                : :Chapter 6
    00:45:11.250                : :Chapter 7
    00:54:12.416                : :Chapter 8
    00:59:30.484                : :Chapter 9
    01:05:23.753                : :Chapter 10
    01:13:30.072                : :Chapter 11
    01:19:06.242                : :Chapter 12

  • Peso: CinefiloCool

Sinopsis

Descargar The Mermaid: Lake of the Dead [La Sirena Del Lago Maldito] (2018) Full HD 1080p Latino, Mega, Google Drive. Una sirena malvada se enamora del prometido romano de Marina y apunta a mantenerlo alejado de Marina en su Reino de la Muerte bajo el agua. La sirena es una joven que se ahogó hace unos siglos. Marina solo tiene una semana para superar su miedo a las aguas oscuras, permanecer humana en la lucha mortal con los monstruos y no convertirse en una sola.

Español Latino E-AC3 5.1 + AC3 WEB-DL – Ruso DTS 5.1 Bluray

Ficha técnica

Video trailer de la película

Enlaces de descarga

Rip de Bluray

Descargar The Mermaid: Lake of the Dead (2018) Full HD 1080p Latino




Aportes de DPeliculasHDmega la pass es:dpeliculashdmega.org Aportes de CinemaniaHD la pass es:cinemaniahdd.com

Películas relacionadas

  • Resurrección (2022) AMZN WEB-DL 1080p Latino

    Resurrección (2022) AMZN WEB-DL 1080p Latino

    2022
    Resurrección (2022) AMZN WEB-DL 1080p Latino

    1h 43m 2022

    Descargar Resurrección (2022) AMZN Web-DL 1080p Latino. La vida cuidadosamente construida de una mujer...

    Director: Michael Kefeyalew

    Género: Drama

    Actores: Zarra Kaahn

  • El Lobo Y El Leon (2021) PLACEBO Full HD 1080p Latino

    El Lobo Y El Leon (2021) PLACEBO Full HD 1080p Latino

    2021
    El Lobo Y El Leon (2021) PLACEBO Full HD 1080p Latino

    1h 39m 2021

    Descargar El Lobo Y El Leon (2021) PLACEBO Full HD 1080p Latino. A la muerte de su abuelo, Alma, un joven...

    Director: Gilles de Maistre

    Género: Aventura

    Actores: Victor Cornfoot

descargar The Mermaid: Lake of the Dead (2018) Full HD 1080p Latino Full 1080p 1080p gratis, The Mermaid: Lake of the Dead (2018) Full HD 1080p Latino Full 1080p mega 1 link, The Mermaid: Lake of the Dead (2018) Full HD 1080p Latino Full 1080p pelicula completa, descargar The Mermaid: Lake of the Dead (2018) Full HD 1080p Latino Full 1080p gratis en mega.

The Mermaid: Lake of the Dead (2018) Full HD 1080p Latino pelicula full hd, The Mermaid: Lake of the Dead (2018) Full HD 1080p Latino mega latino, The Mermaid: Lake of the Dead (2018) Full HD 1080p Latino 4k latino, The Mermaid: Lake of the Dead (2018) Full HD 1080p Latino pelicula completa, The Mermaid: Lake of the Dead (2018) Full HD 1080p Latino descargar gratis, descargar The Mermaid: Lake of the Dead (2018) Full HD 1080p Latino pelicula latino, The Mermaid: Lake of the Dead (2018) Full HD 1080p Latino 1 link mega, The Mermaid: Lake of the Dead (2018) Full HD 1080p Latino 1 link google drive, The Mermaid: Lake of the Dead (2018) Full HD 1080p Latino hd 1080p latino.
Comentarios 0