×

¿Problemas para descargar con Mozilla, EDGE? Deshabilita la opción "Abrir vinculos en una pestaña nueva" tal como lo muestra ésta imagen.

The Mentalist (2009) [AMZN] Primera Temporada WEB-DL 1080p Latino

933 vistas

Información de The Mentalist (2009) [AMZN] Primera Temporada WEB-DL 1080p Latino

Datos de la película

  • Calidad: WEBDL
  • Audio: Se especifica abajo de la Sinopsis
  • Subtitulos: Español Latino SRT- FORZADOS SRT
  • Resolución: 1920x1080p
  • Formato:
  • Codec: H.264
  • Encoder: Dracarys
  • Mediainfo: Clic para Mostrar Datos Ver
  • Format                      : Matroska
    Format version              : Version 4
    File size                   : 3.36 GiB
    Duration                    : 44 min 58 s
    Overall bit rate            : 10.7 Mb/s
    Movie name                  : CinemaniaHDD.net
    Encoded date                : UTC 2020-01-19 23:38:20
    Writing application         : mkvmerge v38.0.0 ('The Silent Type') 64-bit
    Writing library             : libebml v1.3.9 + libmatroska v1.5.2

    Video
    ID                          : 1
    Format                      : AVC
    Format/Info                 : Advanced Video Codec
    Format profile              : High@L4
    Format settings             : CABAC / 4 Ref Frames
    Format settings, CABAC      : Yes
    Format settings, ReFrames   : 4 frames
    Codec ID                    : V_MPEG4/ISO/AVC
    Duration                    : 44 min 58 s
    Bit rate                    : 9 827 kb/s
    Width                       : 1 920 pixels
    Height                      : 1 080 pixels
    Display aspect ratio        : 16:9
    Frame rate mode             : Constant
    Frame rate                  : 23.976 (24000/1001) FPS
    Color space                 : YUV
    Chroma subsampling          : 4:2:0
    Bit depth                   : 8 bits
    Scan type                   : Progressive
    Bits/(Pixel*Frame)          : 0.198
    Stream size                 : 3.09 GiB (92%)
    Default                     : Yes
    Forced                      : No
    Color range                 : Limited
    Color primaries             : BT.709
    Transfer characteristics    : BT.709
    Matrix coefficients         : BT.709

    Audio #1
    ID                          : 2
    Format                      : E-AC-3
    Format/Info                 : Enhanced AC-3
    Commercial name             : Dolby Digital Plus
    Codec ID                    : A_EAC3
    Duration                    : 44 min 58 s
    Bit rate mode               : Constant
    Bit rate                    : 224 kb/s
    Channel(s)                  : 2 channels
    Channel layout              : L R
    Sampling rate               : 48.0 kHz
    Frame rate                  : 31.250 FPS (1536 SPF)
    Compression mode            : Lossy
    Stream size                 : 72.0 MiB (2%)
    Language                    : Spanish
    Service kind                : Complete Main
    Default                     : Yes
    Forced                      : No

    Audio #2
    ID                          : 3
    Format                      : E-AC-3
    Format/Info                 : Enhanced AC-3
    Commercial name             : Dolby Digital Plus
    Codec ID                    : A_EAC3
    Duration                    : 44 min 58 s
    Bit rate mode               : Constant
    Bit rate                    : 640 kb/s
    Channel(s)                  : 6 channels
    Channel layout              : L R C LFE Ls Rs
    Sampling rate               : 48.0 kHz
    Frame rate                  : 31.250 FPS (1536 SPF)
    Compression mode            : Lossy
    Stream size                 : 206 MiB (6%)
    Language                    : English
    Service kind                : Complete Main
    Default                     : No
    Forced                      : No

    Text #1
    ID                          : 4
    Format                      : UTF-8
    Codec ID                    : S_TEXT/UTF8
    Codec ID/Info               : UTF-8 Plain Text
    Duration                    : 44 min 51 s
    Bit rate                    : 62 b/s
    Count of elements           : 564
    Stream size                 : 20.7 KiB (0%)
    Language                    : Spanish
    Default                     : No
    Forced                      : No

    Text #2
    ID                          : 5
    Format                      : UTF-8
    Codec ID                    : S_TEXT/UTF8
    Codec ID/Info               : UTF-8 Plain Text
    Duration                    : 35 min 22 s
    Bit rate                    : 1 b/s
    Count of elements           : 9
    Stream size                 : 309 Bytes (0%)
    Language                    : Spanish
    Default                     : Yes
    Forced                      : Yes

  • Peso: 4.5 GiB X Capitulo

Sinopsis

Serie de investigación policial creada por Bruno Heller (“Roma”, “Gotham”).
El protagonista, el rubio actor australiano Simon Baker, también produjo y dirigió algunos episodios.

Patrick Jane (Simon Baker), un falso médium televisivo, se une como asesor del departamento criminal de la policía californiana después de que un asesino en serie, llamado John “El Rojo”, mate a su mujer e hija después de que Patrick le insultase en pantalla.
Jane, mientras busca venganza por esos asesinatos, colabora con el equipo policial liderado por Teresa Lisbon (Robin Tunney), combinando de forma heterodoxa intuición, psicología, observación y deducción en una mezcla personal de seducción, ironía e inteligencia.

 

 

Latino: E-AC3 2.0 – Ingles: E-AC3 5.1 – AMAZON

Ficha técnica

Video trailer de la película

Enlaces de descarga

Rip de Bluray

Descargar The Mentalist (2009) [AMZN] Primera Temporada WEB-DL 1080p Latino




Aportes de DPeliculasHDmega la pass es:dpeliculashdmega.org Aportes de CinemaniaHD la pass es:cinemaniahdd.com
Guardado en : Crimen , Drama

Películas relacionadas

descargar The Mentalist (2009) [AMZN] Primera Temporada WEB-DL 1080p Latino WEBDL 1080p gratis, The Mentalist (2009) [AMZN] Primera Temporada WEB-DL 1080p Latino WEBDL mega 1 link, The Mentalist (2009) [AMZN] Primera Temporada WEB-DL 1080p Latino WEBDL pelicula completa, descargar The Mentalist (2009) [AMZN] Primera Temporada WEB-DL 1080p Latino WEBDL gratis en mega.

The Mentalist (2009) [AMZN] Primera Temporada WEB-DL 1080p Latino pelicula full hd, The Mentalist (2009) [AMZN] Primera Temporada WEB-DL 1080p Latino mega latino, The Mentalist (2009) [AMZN] Primera Temporada WEB-DL 1080p Latino 4k latino, The Mentalist (2009) [AMZN] Primera Temporada WEB-DL 1080p Latino pelicula completa, The Mentalist (2009) [AMZN] Primera Temporada WEB-DL 1080p Latino descargar gratis, descargar The Mentalist (2009) [AMZN] Primera Temporada WEB-DL 1080p Latino pelicula latino, The Mentalist (2009) [AMZN] Primera Temporada WEB-DL 1080p Latino 1 link mega, The Mentalist (2009) [AMZN] Primera Temporada WEB-DL 1080p Latino 1 link google drive, The Mentalist (2009) [AMZN] Primera Temporada WEB-DL 1080p Latino hd 1080p latino.
Comentarios 3
  • Jose - 21 febrero, 2020

    Muchas gracias por compartir, ojalá puedan subir la serie completa.

  • Víctor Cabrera - 04 febrero, 2020

    Suban más de esto porfaaaaaaaaaa

  • Jhair - 03 febrero, 2020

    muchas gracias por esta gran serie, espero puedan subir las demás temporadas también.