×

¿Problemas para descargar con Mozilla, EDGE? Deshabilita la opción "Abrir vinculos en una pestaña nueva" tal como lo muestra ésta imagen.

The Medallion (2003) REMUX 1080p Latino – CMHDD

206 vistas

Información de The Medallion (2003) REMUX 1080p Latino – CMHDD

Datos de la película

  • Calidad: Full 1080p
  • Audio: Se especifica abajo de la Sinopsis
  • Subtitulos: Español Latino SRT
  • Resolución: 19201080p
  • Formato: MKV
  • Codec: H.264
  • Encoder: Dracarys
  • Mediainfo: Clic para Mostrar Datos Ver
  • Format                      : Matroska
    Format version              : Version 4
    File size                   : 18.7 GiB
    Duration                    : 1 h 28 min
    Overall bit rate mode       : Variable
    Overall bit rate            : 30.3 Mb/s
    Movie name                  : The Medallion (2003) REMUX 1080p Latino - CMHDD
    Encoded date                : UTC 2023-11-24 23:39:00
    Writing application         : mkvmerge v47.0.0 ('Black Flag') 64-bit
    Writing library             : libebml v1.3.10 + libmatroska v1.5.2
    Cover                       : Yes
    Attachments                 : cover.jpg

    Video
    ID                          : 1
    ID in the original source m : 4113 (0x1011)
    Format                      : AVC
    Format/Info                 : Advanced Video Codec
    Format profile              : High@L4.1
    Format settings             : CABAC / 2 Ref Frames
    Format settings, CABAC      : Yes
    Format settings, Reference  : 2 frames
    Codec ID                    : V_MPEG4/ISO/AVC
    Duration                    : 1 h 28 min
    Bit rate mode               : Variable
    Bit rate                    : 27.9 Mb/s
    Width                       : 1 920 pixels
    Height                      : 1 080 pixels
    Display aspect ratio        : 16:9
    Frame rate mode             : Constant
    Frame rate                  : 23.976 (24000/1001) FPS
    Color space                 : YUV
    Chroma subsampling          : 4:2:0
    Bit depth                   : 8 bits
    Scan type                   : Progressive
    Bits/(Pixel*Frame)          : 0.561
    Stream size                 : 17.2 GiB (92%)
    Default                     : Yes
    Forced                      : No
    Original source medium      : Blu-ray

    Audio #1
    ID                          : 2
    ID in the original source m : 4352 (0x1100)
    Format                      : DTS XLL
    Format/Info                 : Digital Theater Systems
    Commercial name             : DTS-HD Master Audio
    Codec ID                    : A_DTS
    Duration                    : 1 h 28 min
    Bit rate mode               : Variable
    Bit rate                    : 1 733 kb/s
    Channel(s)                  : 2 channels
    Channel layout              : L R
    Sampling rate               : 48.0 kHz
    Frame rate                  : 93.750 FPS (512 SPF)
    Bit depth                   : 16 bits
    Compression mode            : Lossless
    Stream size                 : 1.07 GiB (6%)
    Language                    : English
    Default                     : Yes
    Forced                      : No
    Original source medium      : Blu-ray

    Audio #2
    ID                          : 3
    Format                      : E-AC-3
    Format/Info                 : Enhanced AC-3
    Commercial name             : Dolby Digital Plus
    Codec ID                    : A_EAC3
    Duration                    : 1 h 28 min
    Bit rate mode               : Constant
    Bit rate                    : 640 kb/s
    Channel(s)                  : 6 channels
    Channel layout              : L R C LFE Ls Rs
    Sampling rate               : 48.0 kHz
    Frame rate                  : 31.250 FPS (1536 SPF)
    Compression mode            : Lossy
    Stream size                 : 405 MiB (2%)
    Language                    : Spanish
    Service kind                : Complete Main
    Default                     : No
    Forced                      : No

    Text
    ID                          : 4
    Format                      : UTF-8
    Codec ID                    : S_TEXT/UTF8
    Codec ID/Info               : UTF-8 Plain Text
    Duration                    : 1 h 27 min
    Bit rate                    : 31 b/s
    Frame rate                  : 0.132 FPS
    Count of elements           : 694
    Stream size                 : 19.9 KiB (0%)
    Language                    : Spanish
    Default                     : Yes
    Forced                      : No

    Menu
    00:00:00.000                : en:Capítulo 01
    00:06:53.870                : en:Capítulo 02
    00:10:41.807                : en:Capítulo 03
    00:17:36.634                : en:Capítulo 04
    00:20:57.297                : en:Capítulo 05
    00:24:22.125                : en:Capítulo 06
    00:30:28.951                : en:Capítulo 07
    00:36:00.782                : en:Capítulo 08
    00:42:47.021                : en:Capítulo 09
    00:47:40.648                : en:Capítulo 10
    00:54:13.875                : en:Capítulo 11
    00:59:24.268                : en:Capítulo 12
    01:04:32.492                : en:Capítulo 13
    01:11:55.600                : en:Capítulo 14
    01:16:24.078                : en:Capítulo 15
    01:20:10.970                : en:Capítulo 16

     

  • Peso: 18.7 GiB

Sinopsis

Eddie Yang (Jackie Chan), un simpático detective de Hong-Kong, sufre un accidente casi mortal mientras investiga un caso que involucra a un misterioso medallón con poderes de talismán. Eddie descubre que con el talismán adquiere los poderes de un guerrero inmortal, que le confieren una velocidad, una fuerza y una habilidad increíbles. Con la ayuda de la guapa agente inglesa de la Interpole Nicole James (Claire Forlani), Eddie intentará descubrir el secreto del talismán y detener una operación secreta de trata de esclavos organizada por el diabólico Snakehead, que pretende utilizar los poderes para sus terribles planes.

 

 

Latino: E-AC3 5.1  –  Inglés: DTS 2.0

Ficha técnica

Video trailer de la película

Enlaces de descarga

Rip de Bluray

Descargar The Medallion (2003) REMUX 1080p Latino – CMHDD




Aportes de DPeliculasHDmega la pass es:dpeliculashdmega.org Aportes de CinemaniaHD la pass es:cinemaniahdd.com Aportes recientes:cinemaniahdd.net
Guardado en : Acción , Comedia , Fantasía , Suspenso

Películas relacionadas

descargar The Medallion (2003) REMUX 1080p Latino – CMHDD Full 1080p 1080p gratis, The Medallion (2003) REMUX 1080p Latino – CMHDD Full 1080p mega 1 link, The Medallion (2003) REMUX 1080p Latino – CMHDD Full 1080p pelicula completa, descargar The Medallion (2003) REMUX 1080p Latino – CMHDD Full 1080p gratis en mega.

The Medallion (2003) REMUX 1080p Latino – CMHDD pelicula full hd, The Medallion (2003) REMUX 1080p Latino – CMHDD mega latino, The Medallion (2003) REMUX 1080p Latino – CMHDD 4k latino, The Medallion (2003) REMUX 1080p Latino – CMHDD pelicula completa, The Medallion (2003) REMUX 1080p Latino – CMHDD descargar gratis, descargar The Medallion (2003) REMUX 1080p Latino – CMHDD pelicula latino, The Medallion (2003) REMUX 1080p Latino – CMHDD 1 link mega, The Medallion (2003) REMUX 1080p Latino – CMHDD 1 link google drive, The Medallion (2003) REMUX 1080p Latino – CMHDD hd 1080p latino.
Comentarios 0