×

¿Problemas para descargar con Mozilla, EDGE? Deshabilita la opción "Abrir vinculos en una pestaña nueva" tal como lo muestra ésta imagen.

The Matrix Revolutions (2003) REMUX 4K HDR Latino – CMHDD

425 vistas

Información de The Matrix Revolutions (2003) REMUX 4K HDR Latino – CMHDD

Datos de la película

  • Calidad: 4K HDR
  • Audio: Español Latino AC3 2.0 BLURAY - Ingles AC3 5.1 BLURAY
  • Subtitulos: Español Latino PGS
  • Resolución: 3840z2160p
  • Formato: MKV
  • Codec: H.264
  • Encoder: Dracarys
  • Mediainfo: Clic para Mostrar Datos Ver
  • Format                      : Matroska
    Format version              : Version 4
    File size                   : 50.1 GiB
    Duration                    : 2 h 9 min
    Overall bit rate mode       : Variable
    Overall bit rate            : 55.5 Mb/s
    Movie name                  : The Matrix Revolutions (2003) REMUX 4K HDR Latino - CMHDD
    Encoded date                : UTC 2021-09-17 00:06:10
    Writing application         : mkvmerge v17.0.0 ('Be Ur Friend') 64-bit
    Writing library             : libebml v1.3.5 + libmatroska v1.4.8

    Video
    ID                          : 1
    Format                      : HEVC
    Format/Info                 : High Efficiency Video Coding
    Format profile              : Main 10@L5.1@High
    HDR format                  : SMPTE ST 2086, HDR10 compatible
    Codec ID                    : V_MPEGH/ISO/HEVC
    Duration                    : 2 h 9 min
    Bit rate                    : 51.2 Mb/s
    Width                       : 3 840 pixels
    Height                      : 2 160 pixels
    Display aspect ratio        : 16:9
    Frame rate mode             : Constant
    Frame rate                  : 23.976 (24000/1001) FPS
    Color space                 : YUV
    Chroma subsampling          : 4:2:0 (Type 2)
    Bit depth                   : 10 bits
    Bits/(Pixel*Frame)          : 0.258
    Stream size                 : 46.2 GiB (92%)
    Default                     : Yes
    Forced                      : No
    Color range                 : Limited
    Color primaries             : BT.2020
    Transfer characteristics    : PQ
    Matrix coefficients         : BT.2020 non-constant
    Mastering display color pri : BT.2020
    Mastering display luminance : min: 0.0001 cd/m2, max: 1000 cd/m2
    Maximum Content Light Level : 996 cd/m2
    Maximum Frame-Average Light : 249 cd/m2

    Audio #1
    ID                          : 2
    Format                      : MLP FBA 16-ch
    Format/Info                 : Meridian Lossless Packing FBA with 16-channel presentation
    Commercial name             : Dolby TrueHD with Dolby Atmos
    Codec ID                    : A_TRUEHD
    Duration                    : 2 h 9 min
    Bit rate mode               : Variable
    Bit rate                    : 3 527 kb/s
    Maximum bit rate            : 6 264 kb/s
    Channel(s)                  : 8 channels
    Channel layout              : L R C LFE Ls Rs Lb Rb
    Sampling rate               : 48.0 kHz
    Frame rate                  : 1 200.000 FPS (40 SPF)
    Compression mode            : Lossless
    Stream size                 : 3.18 GiB (6%)
    Language                    : English
    Default                     : No
    Forced                      : No
    Number of dynamic objects   : 11
    Bed channel count           : 1 channel
    Bed channel configuration   : LFE

    Audio #2
    ID                          : 3
    Format                      : AC-3
    Format/Info                 : Audio Coding 3
    Commercial name             : Dolby Digital
    Format settings             : Dolby Surround
    Codec ID                    : A_AC3
    Duration                    : 2 h 9 min
    Bit rate mode               : Constant
    Bit rate                    : 192 kb/s
    Channel(s)                  : 2 channels
    Channel layout              : L R
    Sampling rate               : 48.0 kHz
    Frame rate                  : 31.250 FPS (1536 SPF)
    Compression mode            : Lossy
    Stream size                 : 178 MiB (0%)
    Language                    : Spanish
    Service kind                : Complete Main
    Default                     : Yes
    Forced                      : No

    Audio #3
    ID                          : 4
    Format                      : AC-3
    Format/Info                 : Audio Coding 3
    Commercial name             : Dolby Digital
    Format settings             : Dolby Surround EX
    Codec ID                    : A_AC3
    Duration                    : 2 h 9 min
    Bit rate mode               : Constant
    Bit rate                    : 448 kb/s
    Channel(s)                  : 6 channels
    Channel layout              : L R C LFE Ls Rs
    Sampling rate               : 48.0 kHz
    Frame rate                  : 31.250 FPS (1536 SPF)
    Compression mode            : Lossy
    Stream size                 : 414 MiB (1%)
    Language                    : English
    Service kind                : Complete Main
    Default                     : No
    Forced                      : No

    Text
    ID                          : 5
    Format                      : PGS
    Muxing mode                 : zlib
    Codec ID                    : S_HDMV/PGS
    Codec ID/Info               : Picture based subtitle format used on BDs/HD-DVDs
    Duration                    : 2 h 8 min
    Bit rate                    : 12.7 kb/s
    Count of elements           : 2112
    Stream size                 : 11.7 MiB (0%)
    Language                    : Spanish
    Default                     : No
    Forced                      : No

    Menu
    00:00:00.000                : en:Chapter 1
    00:03:55.235                : en:Chapter 2
    00:07:32.952                : en:Chapter 3
    00:10:19.785                : en:Chapter 4
    00:14:44.300                : en:Chapter 5
    00:17:58.577                : en:Chapter 6
    00:23:33.078                : en:Chapter 7
    00:30:06.137                : en:Chapter 8
    00:35:35.466                : en:Chapter 9
    00:39:34.038                : en:Chapter 10
    00:42:58.742                : en:Chapter 11
    00:46:43.133                : en:Chapter 12
    00:49:02.522                : en:Chapter 13
    00:51:53.527                : en:Chapter 14
    00:58:00.560                : en:Chapter 15
    01:00:19.032                : en:Chapter 16
    01:02:29.746                : en:Chapter 17
    01:08:00.826                : en:Chapter 18
    01:10:29.141                : en:Chapter 19
    01:14:33.719                : en:Chapter 20
    01:18:23.281                : en:Chapter 21
    01:23:08.900                : en:Chapter 22
    01:25:55.733                : en:Chapter 23
    01:29:13.264                : en:Chapter 24
    01:31:51.589                : en:Chapter 25
    01:36:51.388                : en:Chapter 26
    01:41:55.192                : en:Chapter 27
    01:44:53.036                : en:Chapter 28
    01:48:06.563                : en:Chapter 29
    01:51:30.767                : en:Chapter 30
    01:55:05.815                : en:Chapter 31
    01:57:31.127                : en:Chapter 32
    02:00:12.288                : en:Chapter 33

  • Peso: 50.1 GiB

Sinopsis

La tercera parte de «Matrix» forma junto a «Matrix Reloaded» una película dividida en dos debido a su larga duración. Matrix Revolutions tiene lugar en su mayor parte en en el mundo real, en el que Neo, Trinity y Morpheo lucharán contra el avance de las máquinas hacia la ciudad de Zion, último reducto de la raza humana.

Ficha técnica

Video trailer de la película

Enlaces de descarga

Rip de Bluray

Descargar The Matrix Revolutions (2003) REMUX 4K HDR Latino – CMHDD


Aportes de DPeliculasHDmega la pass es:dpeliculashdmega.org Aportes de CinemaniaHD la pass es:cinemaniahdd.com

Películas relacionadas

  • DC Liga De Supermascotas (2022) HD 1080p Latino

    DC Liga De Supermascotas (2022) HD 1080p Latino

    2022
    DC Liga De Supermascotas (2022) HD 1080p Latino

    1h 45m 2022

    Descargar DC Liga De Supermascotas (2022) HD 1080p Latino. Krypto el Superperro y Superman son amigos...

    Director: Sam Levine

    Género: Acción

    Actores: Yvette Nicole Brown

  • Invitacion Al Infierno (2022) MA WEB-DL 1080p Latino

    Invitacion Al Infierno (2022) MA WEB-DL 1080p Latino

    2022
    Invitacion Al Infierno (2022) MA WEB-DL 1080p Latino

    1h 45m 2022

    Descargar Invitacion Al Infierno (2022) MA WEB-DL 1080p Latino. Tras la muerte de su madre y quedarse...

    Director: Jessica M. Thompson

    Género: Suspenso

    Actores: Virág Bárány

  • Tremors (1990) REMUX 4K HDR Latino – CMHDD

    Tremors (1990) REMUX 4K HDR Latino – CMHDD

    1990
    Tremors (1990) REMUX 4K HDR Latino – CMHDD

    1h 35m 1990

    En Perfección, un pequeño pueblo al borde del desierto de Nevada, algo parece suceder debajo de la...

    Director: Susan Bierbaum

    Género: Acción

    Actores: Victor Wong

descargar The Matrix Revolutions (2003) REMUX 4K HDR Latino – CMHDD 4K HDR 1080p gratis, The Matrix Revolutions (2003) REMUX 4K HDR Latino – CMHDD 4K HDR mega 1 link, The Matrix Revolutions (2003) REMUX 4K HDR Latino – CMHDD 4K HDR pelicula completa, descargar The Matrix Revolutions (2003) REMUX 4K HDR Latino – CMHDD 4K HDR gratis en mega.

The Matrix Revolutions (2003) REMUX 4K HDR Latino – CMHDD pelicula full hd, The Matrix Revolutions (2003) REMUX 4K HDR Latino – CMHDD mega latino, The Matrix Revolutions (2003) REMUX 4K HDR Latino – CMHDD 4k latino, The Matrix Revolutions (2003) REMUX 4K HDR Latino – CMHDD pelicula completa, The Matrix Revolutions (2003) REMUX 4K HDR Latino – CMHDD descargar gratis, descargar The Matrix Revolutions (2003) REMUX 4K HDR Latino – CMHDD pelicula latino, The Matrix Revolutions (2003) REMUX 4K HDR Latino – CMHDD 1 link mega, The Matrix Revolutions (2003) REMUX 4K HDR Latino – CMHDD 1 link google drive, The Matrix Revolutions (2003) REMUX 4K HDR Latino – CMHDD hd 1080p latino.
Comentarios 0