×

¿Problemas para descargar con Mozilla, EDGE? Deshabilita la opción "Abrir vinculos en una pestaña nueva" tal como lo muestra ésta imagen.

The Matrix Reloaded (2003) REMUX 4K HDR Latino – CMHDD

313 vistas

Información de The Matrix Reloaded (2003) REMUX 4K HDR Latino – CMHDD

Datos de la película

  • Calidad: 4K HDR
  • Audio: Español Latino AC3 2.0 BLURAY - Ingles AC3 5.1 BLURAY
  • Subtitulos: Español Latino PGS
  • Resolución: 3840x2160p
  • Formato: MKV
  • Codec: HEVC
  • Encoder: Dracarys
  • Mediainfo: Clic para Mostrar Datos Ver
  • Format                      : Matroska
    Format version              : Version 4
    File size                   : 69.0 GiB
    Duration                    : 2 h 18 min
    Overall bit rate mode       : Variable
    Overall bit rate            : 71.4 Mb/s
    Movie name                  : The Matrix Reloaded (2003) REMUX 4K HDR Latino - CMHDD
    Encoded date                : UTC 2021-09-16 01:33:04
    Writing application         : mkvmerge v17.0.0 ('Be Ur Friend') 64-bit
    Writing library             : libebml v1.3.5 + libmatroska v1.4.8

    Video
    ID                          : 1
    Format                      : HEVC
    Format/Info                 : High Efficiency Video Coding
    Format profile              : Main 10@L5.1@High
    HDR format                  : SMPTE ST 2086, HDR10 compatible
    Codec ID                    : V_MPEGH/ISO/HEVC
    Duration                    : 2 h 18 min
    Bit rate                    : 67.2 Mb/s
    Width                       : 3 840 pixels
    Height                      : 2 160 pixels
    Display aspect ratio        : 16:9
    Frame rate mode             : Constant
    Frame rate                  : 23.976 (24000/1001) FPS
    Color space                 : YUV
    Chroma subsampling          : 4:2:0 (Type 2)
    Bit depth                   : 10 bits
    Bits/(Pixel*Frame)          : 0.338
    Stream size                 : 64.9 GiB (94%)
    Default                     : Yes
    Forced                      : No
    Color range                 : Limited
    Color primaries             : BT.2020
    Transfer characteristics    : PQ
    Matrix coefficients         : BT.2020 non-constant
    Mastering display color pri : BT.2020
    Mastering display luminance : min: 0.0001 cd/m2, max: 1000 cd/m2
    Maximum Content Light Level : 996 cd/m2
    Maximum Frame-Average Light : 246 cd/m2

    Audio #1
    ID                          : 2
    Format                      : MLP FBA 16-ch
    Format/Info                 : Meridian Lossless Packing FBA with 16-channel presentation
    Commercial name             : Dolby TrueHD with Dolby Atmos
    Codec ID                    : A_TRUEHD
    Duration                    : 2 h 18 min
    Bit rate mode               : Variable
    Bit rate                    : 3 425 kb/s
    Maximum bit rate            : 5 928 kb/s
    Channel(s)                  : 8 channels
    Channel layout              : L R C LFE Ls Rs Lb Rb
    Sampling rate               : 48.0 kHz
    Frame rate                  : 1 200.000 FPS (40 SPF)
    Compression mode            : Lossless
    Stream size                 : 3.31 GiB (5%)
    Language                    : English
    Default                     : No
    Forced                      : No
    Number of dynamic objects   : 11
    Bed channel count           : 1 channel
    Bed channel configuration   : LFE

    Audio #2
    ID                          : 3
    Format                      : AC-3
    Format/Info                 : Audio Coding 3
    Commercial name             : Dolby Digital
    Format settings             : Dolby Surround EX
    Codec ID                    : A_AC3
    Duration                    : 2 h 18 min
    Bit rate mode               : Constant
    Bit rate                    : 448 kb/s
    Channel(s)                  : 6 channels
    Channel layout              : L R C LFE Ls Rs
    Sampling rate               : 48.0 kHz
    Frame rate                  : 31.250 FPS (1536 SPF)
    Compression mode            : Lossy
    Stream size                 : 443 MiB (1%)
    Language                    : English
    Service kind                : Complete Main
    Default                     : No
    Forced                      : No

    Audio #3
    ID                          : 4
    Format                      : AC-3
    Format/Info                 : Audio Coding 3
    Commercial name             : Dolby Digital
    Format settings             : Dolby Surround
    Codec ID                    : A_AC3
    Duration                    : 2 h 18 min
    Bit rate mode               : Constant
    Bit rate                    : 192 kb/s
    Channel(s)                  : 2 channels
    Channel layout              : L R
    Sampling rate               : 48.0 kHz
    Frame rate                  : 31.250 FPS (1536 SPF)
    Compression mode            : Lossy
    Delay relative to video     : 2 s 2 ms
    Stream size                 : 190 MiB (0%)
    Language                    : Spanish
    Service kind                : Complete Main
    Default                     : Yes
    Forced                      : No

    Text
    ID                          : 5
    Format                      : PGS
    Muxing mode                 : zlib
    Codec ID                    : S_HDMV/PGS
    Codec ID/Info               : Picture based subtitle format used on BDs/HD-DVDs
    Duration                    : 2 h 17 min
    Bit rate                    : 23.1 kb/s
    Count of elements           : 2380
    Stream size                 : 22.7 MiB (0%)
    Language                    : Spanish
    Default                     : No
    Forced                      : No

    Menu
    00:00:00.000                : en:Chapter 1
    00:03:52.232                : en:Chapter 2
    00:08:57.370                : en:Chapter 3
    00:12:18.904                : en:Chapter 4
    00:16:26.318                : en:Chapter 5
    00:19:45.184                : en:Chapter 6
    00:23:31.410                : en:Chapter 7
    00:27:28.813                : en:Chapter 8
    00:32:03.254                : en:Chapter 9
    00:33:45.189                : en:Chapter 10
    00:37:59.443                : en:Chapter 11
    00:40:57.621                : en:Chapter 12
    00:43:46.957                : en:Chapter 13
    00:50:44.708                : en:Chapter 14
    00:55:10.473                : en:Chapter 15
    01:00:05.101                : en:Chapter 16
    01:02:51.768                : en:Chapter 17
    01:08:54.296                : en:Chapter 18
    01:13:08.884                : en:Chapter 19
    01:16:23.412                : en:Chapter 20
    01:20:33.829                : en:Chapter 21
    01:22:49.130                : en:Chapter 22
    01:26:14.502                : en:Chapter 23
    01:29:54.889                : en:Chapter 24
    01:32:52.900                : en:Chapter 25
    01:37:12.827                : en:Chapter 26
    01:40:53.380                : en:Chapter 27
    01:44:59.793                : en:Chapter 28
    01:48:14.154                : en:Chapter 29
    01:52:27.574                : en:Chapter 30
    01:55:44.938                : en:Chapter 31
    01:57:39.552                : en:Chapter 32
    02:01:53.472                : en:Chapter 33
    02:04:20.453                : en:Chapter 34
    02:07:06.118                : en:Chapter 35
    02:16:31.683                : en:Chapter 36

  • Peso: 69.0 GiB

Sinopsis

Las máquinas avanzan imparables hacia Zion en su afán por destruir a toda la humanidad y todas las naves se preparan para la dura batalla. Neo junto con Morfeo y Trinity buscan el camino del elegido dentro de Matrix para vencer a las máquinas y se encuentran con dificultades inesperadas: el agente Smith ha vuelto y no sólo eso, otros programas dentro de Matrix intentarán acabar con su misión. Mientras tanto Neo se tendrá que adaptar a la vida real y a la fama de ser el elegido.

Ficha técnica

Video trailer de la película

Enlaces de descarga

Rip de Bluray

Descargar The Matrix Reloaded (2003) REMUX 4K HDR Latino – CMHDD


Aportes de DPeliculasHDmega la pass es:dpeliculashdmega.org Aportes de CinemaniaHD la pass es:cinemaniahdd.com

Películas relacionadas

descargar The Matrix Reloaded (2003) REMUX 4K HDR Latino – CMHDD 4K HDR 1080p gratis, The Matrix Reloaded (2003) REMUX 4K HDR Latino – CMHDD 4K HDR mega 1 link, The Matrix Reloaded (2003) REMUX 4K HDR Latino – CMHDD 4K HDR pelicula completa, descargar The Matrix Reloaded (2003) REMUX 4K HDR Latino – CMHDD 4K HDR gratis en mega.

The Matrix Reloaded (2003) REMUX 4K HDR Latino – CMHDD pelicula full hd, The Matrix Reloaded (2003) REMUX 4K HDR Latino – CMHDD mega latino, The Matrix Reloaded (2003) REMUX 4K HDR Latino – CMHDD 4k latino, The Matrix Reloaded (2003) REMUX 4K HDR Latino – CMHDD pelicula completa, The Matrix Reloaded (2003) REMUX 4K HDR Latino – CMHDD descargar gratis, descargar The Matrix Reloaded (2003) REMUX 4K HDR Latino – CMHDD pelicula latino, The Matrix Reloaded (2003) REMUX 4K HDR Latino – CMHDD 1 link mega, The Matrix Reloaded (2003) REMUX 4K HDR Latino – CMHDD 1 link google drive, The Matrix Reloaded (2003) REMUX 4K HDR Latino – CMHDD hd 1080p latino.
Comentarios 0