×

¿Problemas para descargar con Mozilla, EDGE? Deshabilita la opción "Abrir vinculos en una pestaña nueva" tal como lo muestra ésta imagen.

The Matrix Reloaded (2003) REMUX 1080p Latino – CMHDD

1.582 vistas

Información de The Matrix Reloaded (2003) REMUX 1080p Latino – CMHDD

Datos de la película

  • Calidad: Full 1080p
  • Audio: Español Latino AC3 2.0 BLURAY - Ingles AC3 5.1 BLURAY
  • Subtitulos: Español Latino PGS
  • Resolución: ¨1920x1080p
  • Formato: MKV
  • Codec: H.264
  • Encoder: Dracarys
  • Mediainfo: Clic para Mostrar Datos Ver
  • Format                      : Matroska
    Format version              : Version 4
    File size                   : 24.6 GiB
    Duration                    : 2 h 18 min
    Overall bit rate mode       : Variable
    Overall bit rate            : 25.5 Mb/s
    Movie name                  : The Matrix Reloaded (2003) REMUX 1080p Latino – CMHDD
    Encoded date                : UTC 2023-10-19 23:49:40
    Writing application         : mkvmerge v47.0.0 ('Black Flag') 64-bit
    Writing library             : libebml v1.3.10 + libmatroska v1.5.2
    Cover                       : Yes
    Attachments                 : cover.jpg

    Video
    ID                          : 1
    ID in the original source m : 4113 (0x1011)
    Format                      : AVC
    Format/Info                 : Advanced Video Codec
    Format profile              : High@L4.1
    Format settings             : CABAC / 4 Ref Frames
    Format settings, CABAC      : Yes
    Format settings, Reference  : 4 frames
    Codec ID                    : V_MPEG4/ISO/AVC
    Duration                    : 2 h 18 min
    Bit rate mode               : Variable
    Bit rate                    : 20.7 Mb/s
    Maximum bit rate            : 23.0 Mb/s
    Width                       : 1 920 pixels
    Height                      : 1 080 pixels
    Display aspect ratio        : 16:9
    Frame rate mode             : Constant
    Frame rate                  : 23.976 (24000/1001) FPS
    Color space                 : YUV
    Chroma subsampling          : 4:2:0
    Bit depth                   : 8 bits
    Scan type                   : Progressive
    Bits/(Pixel*Frame)          : 0.416
    Stream size                 : 20.0 GiB (81%)
    Default                     : Yes
    Forced                      : No
    Original source medium      : Blu-ray

    Audio #1
    ID                          : 2
    ID in the original source m : 4352 (0x1100)
    Format                      : MLP FBA 16-ch
    Format/Info                 : Meridian Lossless Packing FBA with 16-channel presentation
    Commercial name             : Dolby TrueHD with Dolby Atmos
    Codec ID                    : A_TRUEHD
    Duration                    : 2 h 18 min
    Bit rate mode               : Variable
    Bit rate                    : 3 425 kb/s
    Maximum bit rate            : 5 928 kb/s
    Channel(s)                  : 8 channels
    Channel layout              : L R C LFE Ls Rs Lb Rb
    Sampling rate               : 48.0 kHz
    Frame rate                  : 1 200.000 FPS (40 SPF)
    Compression mode            : Lossless
    Stream size                 : 3.31 GiB (13%)
    Language                    : English
    Default                     : No
    Forced                      : No
    Original source medium      : Blu-ray
    Number of dynamic objects   : 11
    Bed channel count           : 1 channel
    Bed channel configuration   : LFE

    Audio #2
    ID                          : 3
    ID in the original source m : 4352 (0x1100)
    Format                      : AC-3
    Format/Info                 : Audio Coding 3
    Commercial name             : Dolby Digital
    Format settings             : Dolby Surround EX
    Codec ID                    : A_AC3
    Duration                    : 2 h 18 min
    Bit rate mode               : Constant
    Bit rate                    : 448 kb/s
    Channel(s)                  : 6 channels
    Channel layout              : L R C LFE Ls Rs
    Sampling rate               : 48.0 kHz
    Frame rate                  : 31.250 FPS (1536 SPF)
    Compression mode            : Lossy
    Stream size                 : 443 MiB (2%)
    Language                    : English
    Service kind                : Complete Main
    Default                     : No
    Forced                      : No
    Original source medium      : Blu-ray

    Audio #3
    ID                          : 4
    ID in the original source m : 4353 (0x1101)
    Format                      : AC-3
    Format/Info                 : Audio Coding 3
    Commercial name             : Dolby Digital
    Codec ID                    : A_AC3
    Duration                    : 2 h 18 min
    Bit rate mode               : Constant
    Bit rate                    : 640 kb/s
    Channel(s)                  : 6 channels
    Channel layout              : L R C LFE Ls Rs
    Sampling rate               : 48.0 kHz
    Frame rate                  : 31.250 FPS (1536 SPF)
    Compression mode            : Lossy
    Stream size                 : 633 MiB (3%)
    Language                    : English
    Service kind                : Complete Main
    Default                     : No
    Forced                      : No
    Original source medium      : Blu-ray

    Audio #4
    ID                          : 5
    ID in the original source m : 4359 (0x1107)
    Format                      : AC-3
    Format/Info                 : Audio Coding 3
    Commercial name             : Dolby Digital
    Format settings             : Dolby Surround
    Codec ID                    : A_AC3
    Duration                    : 2 h 18 min
    Bit rate mode               : Constant
    Bit rate                    : 192 kb/s
    Channel(s)                  : 2 channels
    Channel layout              : L R
    Sampling rate               : 48.0 kHz
    Frame rate                  : 31.250 FPS (1536 SPF)
    Compression mode            : Lossy
    Delay relative to video     : 2 s 2 ms
    Stream size                 : 190 MiB (1%)
    Language                    : Spanish
    Service kind                : Complete Main
    Default                     : Yes
    Forced                      : No
    Original source medium      : Blu-ray

    Text #1
    ID                          : 6
    ID in the original source m : 4615 (0x1207)
    Format                      : PGS
    Muxing mode                 : zlib
    Codec ID                    : S_HDMV/PGS
    Codec ID/Info               : Picture based subtitle format used on BDs/HD-DVDs
    Duration                    : 2 h 17 min
    Bit rate                    : 24.9 kb/s
    Frame rate                  : 0.288 FPS
    Count of elements           : 2381
    Stream size                 : 24.5 MiB (0%)
    Language                    : Spanish
    Default                     : No
    Forced                      : No
    Original source medium      : Blu-ray

    Text #2
    ID                          : 7
    ID in the original source m : 4634 (0x121A)
    Format                      : PGS
    Muxing mode                 : zlib
    Codec ID                    : S_HDMV/PGS
    Codec ID/Info               : Picture based subtitle format used on BDs/HD-DVDs
    Duration                    : 2 h 18 min
    Bit rate                    : 48.7 kb/s
    Frame rate                  : 0.421 FPS
    Count of elements           : 3489
    Stream size                 : 48.2 MiB (0%)
    Language                    : Spanish
    Default                     : No
    Forced                      : No
    Original source medium      : Blu-ray

    Menu
    00:00:00.000                : en:Capítulo 01
    00:03:52.232                : en:Capítulo 02
    00:08:57.370                : en:Capítulo 03
    00:12:18.904                : en:Capítulo 04
    00:16:26.318                : en:Capítulo 05
    00:19:45.184                : en:Capítulo 06
    00:23:31.410                : en:Capítulo 07
    00:27:28.813                : en:Capítulo 08
    00:32:03.254                : en:Capítulo 09
    00:33:45.189                : en:Capítulo 10
    00:37:59.443                : en:Capítulo 11
    00:40:57.621                : en:Capítulo 12
    00:43:46.957                : en:Capítulo 13
    00:50:44.708                : en:Capítulo 14
    00:55:10.473                : en:Capítulo 15
    01:00:05.101                : en:Capítulo 16
    01:02:51.768                : en:Capítulo 17
    01:08:54.296                : en:Capítulo 18
    01:13:08.884                : en:Capítulo 19
    01:16:23.412                : en:Capítulo 20
    01:20:33.829                : en:Capítulo 21
    01:22:49.130                : en:Capítulo 22
    01:26:14.502                : en:Capítulo 23
    01:29:54.889                : en:Capítulo 24
    01:32:52.900                : en:Capítulo 25
    01:37:12.827                : en:Capítulo 26
    01:40:53.380                : en:Capítulo 27
    01:44:59.793                : en:Capítulo 28
    01:48:14.154                : en:Capítulo 29
    01:52:27.574                : en:Capítulo 30
    01:55:44.938                : en:Capítulo 31
    01:57:39.552                : en:Capítulo 32
    02:01:53.472                : en:Capítulo 33
    02:04:20.453                : en:Capítulo 34
    02:07:06.118                : en:Capítulo 35
    02:16:31.683                : en:Capítulo 36

     

  • Peso: 24.6 GiB

Sinopsis

Las máquinas avanzan imparables hacia Zion en su afán por destruir a toda la humanidad y todas las naves se preparan para la dura batalla. Neo junto con Morfeo y Trinity buscan el camino del elegido dentro de Matrix para vencer a las máquinas y se encuentran con dificultades inesperadas: el agente Smith ha vuelto y no sólo eso, otros programas dentro de Matrix intentarán acabar con su misión. Mientras tanto Neo se tendrá que adaptar a la vida real y a la fama de ser el elegido.

Ficha técnica

Video trailer de la película

Enlaces de descarga

Rip de Bluray

Descargar The Matrix Reloaded (2003) REMUX 1080p Latino – CMHDD




Aportes de DPeliculasHDmega la pass es:dpeliculashdmega.org Aportes de CinemaniaHD la pass es:cinemaniahdd.com Aportes recientes:cinemaniahdd.net

Películas relacionadas

descargar The Matrix Reloaded (2003) REMUX 1080p Latino – CMHDD Full 1080p 1080p gratis, The Matrix Reloaded (2003) REMUX 1080p Latino – CMHDD Full 1080p mega 1 link, The Matrix Reloaded (2003) REMUX 1080p Latino – CMHDD Full 1080p pelicula completa, descargar The Matrix Reloaded (2003) REMUX 1080p Latino – CMHDD Full 1080p gratis en mega.

The Matrix Reloaded (2003) REMUX 1080p Latino – CMHDD pelicula full hd, The Matrix Reloaded (2003) REMUX 1080p Latino – CMHDD mega latino, The Matrix Reloaded (2003) REMUX 1080p Latino – CMHDD 4k latino, The Matrix Reloaded (2003) REMUX 1080p Latino – CMHDD pelicula completa, The Matrix Reloaded (2003) REMUX 1080p Latino – CMHDD descargar gratis, descargar The Matrix Reloaded (2003) REMUX 1080p Latino – CMHDD pelicula latino, The Matrix Reloaded (2003) REMUX 1080p Latino – CMHDD 1 link mega, The Matrix Reloaded (2003) REMUX 1080p Latino – CMHDD 1 link google drive, The Matrix Reloaded (2003) REMUX 1080p Latino – CMHDD hd 1080p latino.
Comentarios 2