×

¿Problemas para descargar con Mozilla, EDGE? Deshabilita la opción "Abrir vinculos en una pestaña nueva" tal como lo muestra ésta imagen.

The Matrix (1999) REMUX 4K HDR Latino – CMHDD

627 vistas

Información de The Matrix (1999) REMUX 4K HDR Latino – CMHDD

Datos de la película

  • Calidad: Full 1080p
  • Audio: Español Latino AC3 2.0 BLURAY - Ingles AC3 5.1 BLURAY
  • Subtitulos: Español Latino PGS
  • Resolución: 3840x2160p
  • Formato: MKV
  • Codec: HEVC
  • Encoder: Dracarys
  • Mediainfo: Clic para Mostrar Datos Ver
  • Format                      : Matroska
    Format version              : Version 4
    File size                   : 51.4 GiB
    Duration                    : 2 h 16 min
    Overall bit rate mode       : Variable
    Overall bit rate            : 54.0 Mb/s
    Movie name                  : The Matrix (1999) REMUX 4K HDR Latino - CMHDD
    Encoded date                : UTC 2021-09-15 22:21:09
    Writing application         : mkvmerge v17.0.0 ('Be Ur Friend') 64-bit
    Writing library             : libebml v1.3.5 + libmatroska v1.4.8

    Video
    ID                          : 1
    Format                      : HEVC
    Format/Info                 : High Efficiency Video Coding
    Format profile              : Main 10@L5.1@High
    HDR format                  : SMPTE ST 2086, HDR10 compatible
    Codec ID                    : V_MPEGH/ISO/HEVC
    Duration                    : 2 h 16 min
    Bit rate                    : 48.8 Mb/s
    Width                       : 3 840 pixels
    Height                      : 2 160 pixels
    Display aspect ratio        : 16:9
    Frame rate mode             : Constant
    Frame rate                  : 23.976 (24000/1001) FPS
    Color space                 : YUV
    Chroma subsampling          : 4:2:0 (Type 2)
    Bit depth                   : 10 bits
    Bits/(Pixel*Frame)          : 0.246
    Stream size                 : 46.5 GiB (90%)
    Default                     : Yes
    Forced                      : No
    Color range                 : Limited
    Color primaries             : BT.2020
    Transfer characteristics    : PQ
    Matrix coefficients         : BT.2020 non-constant
    Mastering display color pri : BT.2020
    Mastering display luminance : min: 0.0020 cd/m2, max: 1000 cd/m2
    Maximum Content Light Level : 992 cd/m2
    Maximum Frame-Average Light : 518 cd/m2

    Audio #1
    ID                          : 2
    Format                      : MLP FBA 16-ch
    Format/Info                 : Meridian Lossless Packing FBA with 16-channel presentation
    Commercial name             : Dolby TrueHD with Dolby Atmos
    Codec ID                    : A_TRUEHD
    Duration                    : 2 h 16 min
    Bit rate mode               : Variable
    Bit rate                    : 4 420 kb/s
    Maximum bit rate            : 7 794 kb/s
    Channel(s)                  : 8 channels
    Channel layout              : L R C LFE Ls Rs Lb Rb
    Sampling rate               : 48.0 kHz
    Frame rate                  : 1 200.000 FPS (40 SPF)
    Compression mode            : Lossless
    Stream size                 : 4.21 GiB (8%)
    Language                    : English
    Default                     : No
    Forced                      : No
    Number of dynamic objects   : 11
    Bed channel count           : 1 channel
    Bed channel configuration   : LFE

    Audio #2
    ID                          : 3
    Format                      : AC-3
    Format/Info                 : Audio Coding 3
    Commercial name             : Dolby Digital
    Format settings             : Dolby Surround
    Codec ID                    : A_AC3
    Duration                    : 2 h 15 min
    Bit rate mode               : Constant
    Bit rate                    : 192 kb/s
    Channel(s)                  : 2 channels
    Channel layout              : L R
    Sampling rate               : 48.0 kHz
    Frame rate                  : 31.250 FPS (1536 SPF)
    Compression mode            : Lossy
    Stream size                 : 186 MiB (0%)
    Language                    : Spanish
    Service kind                : Complete Main
    Default                     : Yes
    Forced                      : No

    Audio #3
    ID                          : 4
    Format                      : AC-3
    Format/Info                 : Audio Coding 3
    Commercial name             : Dolby Digital
    Format settings             : Dolby Surround EX
    Codec ID                    : A_AC3
    Duration                    : 2 h 16 min
    Bit rate mode               : Constant
    Bit rate                    : 448 kb/s
    Channel(s)                  : 6 channels
    Channel layout              : L R C LFE Ls Rs
    Sampling rate               : 48.0 kHz
    Frame rate                  : 31.250 FPS (1536 SPF)
    Compression mode            : Lossy
    Stream size                 : 437 MiB (1%)
    Language                    : English
    Service kind                : Complete Main
    Default                     : No
    Forced                      : No

    Text
    ID                          : 5
    Format                      : PGS
    Muxing mode                 : zlib
    Codec ID                    : S_HDMV/PGS
    Codec ID/Info               : Picture based subtitle format used on BDs/HD-DVDs
    Duration                    : 2 h 8 min
    Bit rate                    : 13.6 kb/s
    Count of elements           : 2650
    Stream size                 : 12.5 MiB (0%)
    Language                    : Spanish
    Default                     : No
    Forced                      : No

    Menu
    00:00:00.000                : en:Chapter 1
    00:03:25.788                : en:Chapter 2
    00:06:35.645                : en:Chapter 3
    00:09:42.665                : en:Chapter 4
    00:11:58.300                : en:Chapter 5
    00:16:47.423                : en:Chapter 6
    00:21:33.542                : en:Chapter 7
    00:25:08.590                : en:Chapter 8
    00:28:51.146                : en:Chapter 9
    00:32:25.193                : en:Chapter 10
    00:35:21.869                : en:Chapter 11
    00:38:40.901                : en:Chapter 12
    00:44:22.576                : en:Chapter 13
    00:46:33.540                : en:Chapter 14
    00:48:57.851                : en:Chapter 15
    00:53:31.291                : en:Chapter 16
    00:56:32.138                : en:Chapter 17
    00:59:01.287                : en:Chapter 18
    01:01:08.581                : en:Chapter 19
    01:05:16.495                : en:Chapter 20
    01:07:46.812                : en:Chapter 21
    01:12:33.432                : en:Chapter 22
    01:17:49.581                : en:Chapter 23
    01:21:03.108                : en:Chapter 24
    01:25:05.350                : en:Chapter 25
    01:29:45.129                : en:Chapter 26
    01:31:27.565                : en:Chapter 27
    01:37:25.256                : en:Chapter 28
    01:41:04.975                : en:Chapter 29
    01:44:20.337                : en:Chapter 30
    01:47:00.497                : en:Chapter 31
    01:50:18.528                : en:Chapter 32
    01:52:56.686                : en:Chapter 33
    01:56:36.906                : en:Chapter 34
    01:58:49.372                : en:Chapter 35
    02:02:27.423                : en:Chapter 36
    02:05:41.784                : en:Chapter 37
    02:08:46.802                : en:Chapter 38

  • Peso: 51.4 GiB

Sinopsis

Thomas Anderson lleva una doble vida: por el día es programador en una importante empresa de software, y por la noche un hacker informático llamado Neo. Su vida no volverá a ser igual cuando unos misteriosos personajes le inviten a descubrir la respuesta a la pregunta que no le deja dormir: ¿qué es Matrix?

Ficha técnica

Video trailer de la película

Enlaces de descarga

Rip de Bluray

Descargar The Matrix (1999) REMUX 4K HDR Latino – CMHDD


Aportes de DPeliculasHDmega la pass es:dpeliculashdmega.org Aportes de CinemaniaHD la pass es:cinemaniahdd.com
Guardado en : Acción , Ciencia ficción

Películas relacionadas

descargar The Matrix (1999) REMUX 4K HDR Latino – CMHDD Full 1080p 1080p gratis, The Matrix (1999) REMUX 4K HDR Latino – CMHDD Full 1080p mega 1 link, The Matrix (1999) REMUX 4K HDR Latino – CMHDD Full 1080p pelicula completa, descargar The Matrix (1999) REMUX 4K HDR Latino – CMHDD Full 1080p gratis en mega.

The Matrix (1999) REMUX 4K HDR Latino – CMHDD pelicula full hd, The Matrix (1999) REMUX 4K HDR Latino – CMHDD mega latino, The Matrix (1999) REMUX 4K HDR Latino – CMHDD 4k latino, The Matrix (1999) REMUX 4K HDR Latino – CMHDD pelicula completa, The Matrix (1999) REMUX 4K HDR Latino – CMHDD descargar gratis, descargar The Matrix (1999) REMUX 4K HDR Latino – CMHDD pelicula latino, The Matrix (1999) REMUX 4K HDR Latino – CMHDD 1 link mega, The Matrix (1999) REMUX 4K HDR Latino – CMHDD 1 link google drive, The Matrix (1999) REMUX 4K HDR Latino – CMHDD hd 1080p latino.
Comentarios 0