×

¿Problemas para descargar con Mozilla, EDGE? Deshabilita la opción "Abrir vinculos en una pestaña nueva" tal como lo muestra ésta imagen.

La Máscara Del Zorro (1998) REMUX 1080p Latino

478 vistas

Información de La Máscara Del Zorro (1998) REMUX 1080p Latino

Datos de la película

  • Calidad: Full 1080p
  • Audio: Español Latino AC3 5.1 BLURAY - Ingles DTS 5.1 BLURAY
  • Subtitulos: Español Latino PGS - Ingles PGS
  • Resolución: 1920x1080p
  • Formato: MKV
  • Codec: H.264
  • Encoder: CinefiloCool
  • Mediainfo: Clic para Mostrar Datos Ver
  • La Mascara Del Zorro (1998) REMUX 1080p Latino-CMHDD.mkv
    Format                      : Matroska
    Format version              : Version 4
    File size                   : 27.7 GiB
    Duration                    : 2 h 17 min
    Overall bit rate mode       : Variable
    Overall bit rate            : 28.8 Mb/s
    Movie name                  : The Mask Of Zorro (1998) CinemaniaHDD.Net
    Encoded date                : UTC 2020-06-22 16:38:04
    Writing application         : mkvmerge v46.0.0 ('No Deeper Escape') 64-bit
    Writing library             : libebml v1.3.10 + libmatroska v1.5.2
    Attachments                 : CINEMANIAHD.png

    Video
    ID                          : 1
    Format                      : AVC
    Format/Info                 : Advanced Video Codec
    Format profile              : High@L4.1
    Format settings             : CABAC / 2 Ref Frames
    Format settings, CABAC      : Yes
    Format settings, Reference  : 2 frames
    Format settings, GOP        : M=1, N=10
    Codec ID                    : V_MPEG4/ISO/AVC
    Duration                    : 2 h 17 min
    Bit rate mode               : Variable
    Bit rate                    : 24.0 Mb/s
    Width                       : 1 920 pixels
    Height                      : 1 080 pixels
    Display aspect ratio        : 16:9
    Frame rate mode             : Constant
    Frame rate                  : 23.976 (24000/1001) FPS
    Color space                 : YUV
    Chroma subsampling          : 4:2:0
    Bit depth                   : 8 bits
    Scan type                   : Progressive
    Bits/(Pixel*Frame)          : 0.482
    Stream size                 : 23.0 GiB (83%)
    Title                       : REMUX 1080p [CinemaniaHDD]
    Default                     : Yes
    Forced                      : No

    Audio #1
    ID                          : 2
    Format                      : AC-3
    Format/Info                 : Audio Coding 3
    Commercial name             : Dolby Digital
    Codec ID                    : A_AC3
    Duration                    : 2 h 17 min
    Bit rate mode               : Constant
    Bit rate                    : 640 kb/s
    Channel(s)                  : 6 channels
    Channel layout              : L R C LFE Ls Rs
    Sampling rate               : 48.0 kHz
    Frame rate                  : 31.250 FPS (1536 SPF)
    Compression mode            : Lossy
    Delay relative to video     : 985 ms
    Stream size                 : 630 MiB (2%)
    Title                       : Español Latino [CinemaniaHDD]
    Language                    : Spanish
    Service kind                : Complete Main
    Default                     : Yes
    Forced                      : No

    Audio #2
    ID                          : 3
    Format                      : DTS XLL
    Format/Info                 : Digital Theater Systems
    Commercial name             : DTS-HD Master Audio
    Codec ID                    : A_DTS
    Duration                    : 2 h 17 min
    Bit rate mode               : Variable
    Bit rate                    : 4 181 kb/s
    Channel(s)                  : 6 channels
    Channel layout              : C L R Ls Rs LFE
    Sampling rate               : 48.0 kHz
    Frame rate                  : 93.750 FPS (512 SPF)
    Bit depth                   : 24 bits
    Compression mode            : Lossless
    Stream size                 : 4.02 GiB (15%)
    Title                       : Ingles [CinemaniaHDD]
    Language                    : English
    Default                     : No
    Forced                      : No

    Text #1
    ID                          : 4
    Format                      : PGS
    Muxing mode                 : zlib
    Codec ID                    : S_HDMV/PGS
    Codec ID/Info               : Picture based subtitle format used on BDs/HD-DVDs
    Duration                    : 2 h 9 min
    Bit rate                    : 19.3 kb/s
    Count of elements           : 2148
    Stream size                 : 17.9 MiB (0%)
    Title                       : Español-PGS [CinemaniaHDD]
    Language                    : Spanish
    Default                     : No
    Forced                      : No

    Text #2
    ID                          : 5
    Format                      : PGS
    Muxing mode                 : zlib
    Codec ID                    : S_HDMV/PGS
    Codec ID/Info               : Picture based subtitle format used on BDs/HD-DVDs
    Duration                    : 2 h 8 min
    Bit rate                    : 17.1 kb/s
    Count of elements           : 1538
    Stream size                 : 15.7 MiB (0%)
    Title                       : Ingles-PGS [CinemaniaHDD]
    Language                    : English
    Default                     : No
    Forced                      : No

    Text #3
    ID                          : 6
    Format                      : UTF-8
    Codec ID                    : S_TEXT/UTF8
    Codec ID/Info               : UTF-8 Plain Text
    Duration                    : 18 min 53 s
    Bit rate                    : 3 b/s
    Count of elements           : 10
    Stream size                 : 494 Bytes (0%)
    Title                       : Forzados-SRT [CinemaniaHDD]
    Language                    : Spanish
    Default                     : Yes
    Forced                      : No

    Text #4
    ID                          : 7
    Format                      : UTF-8
    Codec ID                    : S_TEXT/UTF8
    Codec ID/Info               : UTF-8 Plain Text
    Duration                    : 2 h 9 min
    Bit rate                    : 33 b/s
    Count of elements           : 1068
    Stream size                 : 31.5 KiB (0%)
    Title                       : Español-SRT [CinemaniaHDD]
    Language                    : Spanish
    Default                     : No
    Forced                      : No

    Menu
    00:00:00.000                : en:Start
    00:09:54.511                : en:Zorro's Last Ride
    00:14:04.927                : en:De La Vega Family
    00:27:01.328                : en:Losing Everything
    00:32:54.973                : en:The Murrieta Brothers
    00:37:09.477                : en:Prison Break
    00:42:50.276                : en:Elena
    00:51:59.408                : en:Master Meets Pupil
    01:02:14.105                : en:Lair of the Fox
    01:09:07.018                : en:The Training Circle
    01:15:41.996                : en:A Black Stallion
    01:31:10.840                : en:Horse Thief
    01:41:01.222                : en:Barracks Battle
    01:46:27.172                : en:Sanctuary
    01:52:13.226                : en:Don Alejandro
    02:04:21.162                : en:Dancing with Elena

  • Peso: 27.7 GiB

Sinopsis

Descargar La Máscara Del Zorro (1998) REMUX 1080p Latino. México, 1821. Un enmascarado y romántico héroe popular, conocido como El Zorro, lucha valientemente contra el dominio colonial español en la Alta California. Sin embargo, la víspera de la liberación de México, el despótico gobernador don Rafael Montero descubre que el Zorro es don Diego de la Vega. Un ataque contra la casa del rebelde, se salda con su captura, la muerte de su mujer, el secuestro de su única hija Elena y la destrucción de sus propiedades. Veinte años después, Montero regresa del exilio con Elena, que ignora la identidad de su padre, y se propone comprar California al Presidente de México, el General Santa Anna.

Ficha técnica

Video trailer de la película

Enlaces de descarga

Rip de Bluray

Descargar La Máscara Del Zorro (1998) REMUX 1080p Latino




Aportes de DPeliculasHDmega la pass es:dpeliculashdmega.org Aportes de CinemaniaHD la pass es:cinemaniahdd.com
Guardado en : Acción , Aventura , Remux

Películas relacionadas

  • Borrego: Sal Del Camino (2022) REMUX 1080p Latino

    Borrego: Sal Del Camino (2022) REMUX 1080p Latino

    2022
    Borrego: Sal Del Camino (2022) REMUX 1080p Latino

    1h 42m 2022

    Descargar Borrego: Sal Del Camino (2022) REMUX 1080p Latino. Una joven botánica se traslada a un pequeño...

    Director: Jesse Harris

    Género: Crimen

    Actores: Olivia Trujillo

  • Tren Bala (2022) WEB-DL 4K UHD HDR Latino

    Tren Bala (2022) WEB-DL 4K UHD HDR Latino

    2022
    Tren Bala (2022) WEB-DL 4K UHD HDR Latino

    2h 7m 2022

    Descargar Tren Bala (2022) WEB-DL 4K UHD HDR Latino. El desafortunado asesino "Catarina" está decidido...

    Director: Paul Barry

    Género: 4K HDR

    Actores: Zooey Miyoshi

  • Tren Bala (2022) AMZN WEB-DL 1080p Latino

    Tren Bala (2022) AMZN WEB-DL 1080p Latino

    2022
    Tren Bala (2022) AMZN WEB-DL 1080p Latino

    2h 7m 2022

    Descargar Tren Bala (2022) AMZN WEB-DL 1080p Latino. Cinco asesinos a sueldo se encuentran a bordo de...

    Director: Paul Barry

    Género: Acción

    Actores: Zooey Miyoshi

  • Athena (2022) NF WEB-DL 1080p Latino

    Athena (2022) NF WEB-DL 1080p Latino

    2022
    Athena (2022) NF WEB-DL 1080p Latino

    1h 37m 2022

    Descargar Athena (2022) NF WEB-DL 1080p Latino. Horas después de la trágica muerte de su hermano menor...

    Director: Romain Gavras

    Género: Acción

    Actores: Tarek Haddaji

descargar La Máscara Del Zorro (1998) REMUX 1080p Latino Full 1080p 1080p gratis, La Máscara Del Zorro (1998) REMUX 1080p Latino Full 1080p mega 1 link, La Máscara Del Zorro (1998) REMUX 1080p Latino Full 1080p pelicula completa, descargar La Máscara Del Zorro (1998) REMUX 1080p Latino Full 1080p gratis en mega.

La Máscara Del Zorro (1998) REMUX 1080p Latino pelicula full hd, La Máscara Del Zorro (1998) REMUX 1080p Latino mega latino, La Máscara Del Zorro (1998) REMUX 1080p Latino 4k latino, La Máscara Del Zorro (1998) REMUX 1080p Latino pelicula completa, La Máscara Del Zorro (1998) REMUX 1080p Latino descargar gratis, descargar La Máscara Del Zorro (1998) REMUX 1080p Latino pelicula latino, La Máscara Del Zorro (1998) REMUX 1080p Latino 1 link mega, La Máscara Del Zorro (1998) REMUX 1080p Latino 1 link google drive, La Máscara Del Zorro (1998) REMUX 1080p Latino hd 1080p latino.
Comentarios 0