×

¿Problemas para descargar con Mozilla, EDGE? Deshabilita la opción "Abrir vinculos en una pestaña nueva" tal como lo muestra ésta imagen.

La Máscara Del Zorro (1998) Full HD 1080p Latino

450 vistas

Información de La Máscara Del Zorro (1998) Full HD 1080p Latino

Datos de la película

  • Calidad: Full 1080p
  • Audio: Español Latino AC3 5.1 BLURAY - Ingles DTS 5.1 BLURAY
  • Subtitulos: Español Latino PGS - Ingles PGS
  • Resolución: 1920x1080p
  • Formato: MKV
  • Codec: H.264
  • Encoder: CinefiloCool
  • Mediainfo: Clic para Mostrar Datos Ver
  • La Mascara Del Zorro (1998) Full HD 1080p Latino-CMHDD.mkv
    Format                      : Matroska
    Format version              : Version 4
    File size                   : 8.67 GiB
    Duration                    : 2 h 17 min
    Overall bit rate            : 9 016 kb/s
    Movie name                  : The Mask Of Zorro (1998) CinemaniaHDD.Net
    Encoded date                : UTC 2020-06-22 17:13:51
    Writing application         : mkvmerge v46.0.0 ('No Deeper Escape') 64-bit
    Writing library             : libebml v1.3.10 + libmatroska v1.5.2
    Attachments                 : CINEMANIAHD.png

    Video
    ID                          : 1
    Format                      : AVC
    Format/Info                 : Advanced Video Codec
    Format profile              : High@L4.1
    Format settings             : CABAC / 4 Ref Frames
    Format settings, CABAC      : Yes
    Format settings, Reference  : 4 frames
    Codec ID                    : V_MPEG4/ISO/AVC
    Duration                    : 2 h 17 min
    Bit rate                    : 6 849 kb/s
    Width                       : 1 920 pixels
    Height                      : 1 080 pixels
    Display aspect ratio        : 16:9
    Frame rate mode             : Constant
    Frame rate                  : 23.976 (24000/1001) FPS
    Color space                 : YUV
    Chroma subsampling          : 4:2:0
    Bit depth                   : 8 bits
    Scan type                   : Progressive
    Bits/(Pixel*Frame)          : 0.138
    Stream size                 : 6.58 GiB (76%)
    Title                       : Full HD1080p [CinemaniaHDD]
    Writing library             : x264 core 157 r2935 545de2f
    Encoding settings           : cabac=1 / ref=4 / deblock=1:0:0 / analyse=0x3:0x133 / me=tesa / subme=11 / psy=1 / psy_rd=1.00:0.00 / mixed_ref=1 / me_range=24 / chroma_me=1 / trellis=2 / 8x8dct=1 / cqm=0 / deadzone=21,11 / fast_pskip=0 / chroma_qp_offset=-2 / threads=24 / lookahead_threads=6 / sliced_threads=0 / nr=0 / decimate=1 / interlaced=0 / bluray_compat=0 / constrained_intra=0 / bframes=16 / b_pyramid=2 / b_adapt=2 / b_bias=0 / direct=3 / weightb=1 / open_gop=0 / weightp=2 / keyint=240 / keyint_min=24 / scenecut=40 / intra_refresh=0 / rc_lookahead=60 / rc=crf / mbtree=1 / crf=20.0 / qcomp=0.60 / qpmin=0 / qpmax=69 / qpstep=4 / vbv_maxrate=62500 / vbv_bufsize=78125 / crf_max=0.0 / nal_hrd=none / filler=0 / ip_ratio=1.40 / aq=1:1.00
    Default                     : Yes
    Forced                      : Yes
    Color range                 : Limited
    Color primaries             : BT.709
    Transfer characteristics    : BT.709
    Matrix coefficients         : BT.709

    Audio #1
    ID                          : 2
    Format                      : AC-3
    Format/Info                 : Audio Coding 3
    Commercial name             : Dolby Digital
    Codec ID                    : A_AC3
    Duration                    : 2 h 17 min
    Bit rate mode               : Constant
    Bit rate                    : 640 kb/s
    Channel(s)                  : 6 channels
    Channel layout              : L R C LFE Ls Rs
    Sampling rate               : 48.0 kHz
    Frame rate                  : 31.250 FPS (1536 SPF)
    Compression mode            : Lossy
    Delay relative to video     : 985 ms
    Stream size                 : 630 MiB (7%)
    Title                       : Español Latino [CinemaniaHDD]
    Language                    : Spanish
    Service kind                : Complete Main
    Default                     : Yes
    Forced                      : No

    Audio #2
    ID                          : 3
    Format                      : DTS
    Format/Info                 : Digital Theater Systems
    Codec ID                    : A_DTS
    Duration                    : 2 h 17 min
    Bit rate mode               : Constant
    Bit rate                    : 1 509 kb/s
    Channel(s)                  : 6 channels
    Channel layout              : C L R Ls Rs LFE
    Sampling rate               : 48.0 kHz
    Frame rate                  : 93.750 FPS (512 SPF)
    Bit depth                   : 24 bits
    Compression mode            : Lossy
    Stream size                 : 1.45 GiB (17%)
    Title                       : Ingles [CinemaniaHDD]
    Language                    : English
    Default                     : No
    Forced                      : No

    Text #1
    ID                          : 4
    Format                      : PGS
    Muxing mode                 : zlib
    Codec ID                    : S_HDMV/PGS
    Codec ID/Info               : Picture based subtitle format used on BDs/HD-DVDs
    Duration                    : 2 h 9 min
    Bit rate                    : 19.3 kb/s
    Count of elements           : 2148
    Stream size                 : 17.9 MiB (0%)
    Title                       : Español-PGS [CinemaniaHDD]
    Language                    : Spanish
    Default                     : No
    Forced                      : No

    Text #2
    ID                          : 5
    Format                      : PGS
    Muxing mode                 : zlib
    Codec ID                    : S_HDMV/PGS
    Codec ID/Info               : Picture based subtitle format used on BDs/HD-DVDs
    Duration                    : 2 h 8 min
    Bit rate                    : 17.1 kb/s
    Count of elements           : 1538
    Stream size                 : 15.7 MiB (0%)
    Title                       : Ingles-PGS [CinemaniaHDD]
    Language                    : English
    Default                     : No
    Forced                      : No

    Text #3
    ID                          : 6
    Format                      : UTF-8
    Codec ID                    : S_TEXT/UTF8
    Codec ID/Info               : UTF-8 Plain Text
    Duration                    : 18 min 53 s
    Bit rate                    : 3 b/s
    Count of elements           : 10
    Stream size                 : 494 Bytes (0%)
    Title                       : Forzados-SRT [CinemaniaHDD]
    Language                    : Spanish
    Default                     : Yes
    Forced                      : No

    Text #4
    ID                          : 7
    Format                      : UTF-8
    Codec ID                    : S_TEXT/UTF8
    Codec ID/Info               : UTF-8 Plain Text
    Duration                    : 2 h 9 min
    Bit rate                    : 33 b/s
    Count of elements           : 1068
    Stream size                 : 31.5 KiB (0%)
    Title                       : Español-SRT [CinemaniaHDD]
    Language                    : Spanish
    Default                     : No
    Forced                      : No

    Menu
    00:00:00.000                : en:Start
    00:09:54.511                : en:Zorro's Last Ride
    00:14:04.927                : en:De La Vega Family
    00:27:01.328                : en:Losing Everything
    00:32:54.973                : en:The Murrieta Brothers
    00:37:09.477                : en:Prison Break
    00:42:50.276                : en:Elena
    00:51:59.408                : en:Master Meets Pupil
    01:02:14.105                : en:Lair of the Fox
    01:09:07.018                : en:The Training Circle
    01:15:41.996                : en:A Black Stallion
    01:31:10.840                : en:Horse Thief
    01:41:01.222                : en:Barracks Battle
    01:46:27.172                : en:Sanctuary
    01:52:13.226                : en:Don Alejandro
    02:04:21.162                : en:Dancing with Elena

  • Peso: 8.67 GiB

Sinopsis

Descargar La Máscara Del Zorro (1998) Full HD 1080p Latino. México, 1821. Un enmascarado y romántico héroe popular, conocido como El Zorro, lucha valientemente contra el dominio colonial español en la Alta California. Sin embargo, la víspera de la liberación de México, el despótico gobernador don Rafael Montero descubre que el Zorro es don Diego de la Vega. Un ataque contra la casa del rebelde, se salda con su captura, la muerte de su mujer, el secuestro de su única hija Elena y la destrucción de sus propiedades. Veinte años después, Montero regresa del exilio con Elena, que ignora la identidad de su padre, y se propone comprar California al Presidente de México, el General Santa Anna.

Ficha técnica

Video trailer de la película

Enlaces de descarga

Rip de Bluray

Descargar La Máscara Del Zorro (1998) Full HD 1080p Latino




Aportes de DPeliculasHDmega la pass es:dpeliculashdmega.org Aportes de CinemaniaHD la pass es:cinemaniahdd.com

Películas relacionadas

descargar La Máscara Del Zorro (1998) Full HD 1080p Latino Full 1080p 1080p gratis, La Máscara Del Zorro (1998) Full HD 1080p Latino Full 1080p mega 1 link, La Máscara Del Zorro (1998) Full HD 1080p Latino Full 1080p pelicula completa, descargar La Máscara Del Zorro (1998) Full HD 1080p Latino Full 1080p gratis en mega.

La Máscara Del Zorro (1998) Full HD 1080p Latino pelicula full hd, La Máscara Del Zorro (1998) Full HD 1080p Latino mega latino, La Máscara Del Zorro (1998) Full HD 1080p Latino 4k latino, La Máscara Del Zorro (1998) Full HD 1080p Latino pelicula completa, La Máscara Del Zorro (1998) Full HD 1080p Latino descargar gratis, descargar La Máscara Del Zorro (1998) Full HD 1080p Latino pelicula latino, La Máscara Del Zorro (1998) Full HD 1080p Latino 1 link mega, La Máscara Del Zorro (1998) Full HD 1080p Latino 1 link google drive, La Máscara Del Zorro (1998) Full HD 1080p Latino hd 1080p latino.
Comentarios 0