×

¿Problemas para descargar con Mozilla, EDGE? Deshabilita la opción "Abrir vinculos en una pestaña nueva" tal como lo muestra ésta imagen.

The Marvels (2023) REMUX 1080p Latino-CMHDD

63 vistas

Información de The Marvels (2023) REMUX 1080p Latino-CMHDD

Datos de la película

  • Calidad: Full 1080p
  • Audio: Español Latino AC3 5.1 BLURAY - Ingles DTS-HD Master 7.1 BLURAY
  • Subtitulos: Español Latino PGS - Ingles PGS
  • Resolución: 1920x1080p
  • Formato: MKV
  • Codec: H.264
  • Encoder: CinefiloCool | Source: FullBD -ltzww@CHDBits
  • Mediainfo: Clic para Mostrar Datos Ver
  • The.Marvels.2023.Bluray.REMUX.1080p.AVC.Latino-CC@CMHDD.mkv
    Format                      : Matroska
    Format version              : Version 4
    File size                   : 27.0 GiB
    Duration                    : 1 h 44 min
    Overall bit rate mode       : Variable
    Overall bit rate            : 37.0 Mb/s
    Movie name                  : The Marvels (2023) CinemaniaHDD.Net
    Encoded date                : UTC 2024-02-07 16:19:55
    Writing application         : mkvmerge v56.1.0 ('My Friend') 64-bit
    Writing library             : libebml v1.4.2 + libmatroska v1.6.4
    Cover                       : Yes
    Attachments                 : cover.jpg / CINEMANIAHD.png

    Video
    ID                          : 1
    ID in the original source m : 4113 (0x1011)
    Format                      : AVC
    Format/Info                 : Advanced Video Codec
    Format profile              : High@L4.1
    Format settings             : CABAC / 4 Ref Frames
    Format settings, CABAC      : Yes
    Format settings, Reference  : 4 frames
    Codec ID                    : V_MPEG4/ISO/AVC
    Duration                    : 1 h 44 min
    Bit rate mode               : Variable
    Bit rate                    : 31.3 Mb/s
    Maximum bit rate            : 34.8 Mb/s
    Width                       : 1 920 pixels
    Height                      : 1 080 pixels
    Display aspect ratio        : 16:9
    Frame rate mode             : Constant
    Frame rate                  : 23.976 (24000/1001) FPS
    Color space                 : YUV
    Chroma subsampling          : 4:2:0
    Bit depth                   : 8 bits
    Scan type                   : Progressive
    Bits/(Pixel*Frame)          : 0.630
    Stream size                 : 22.9 GiB (85%)
    Title                       : REMUX HD1080p [CinemaniaHDD]
    Default                     : Yes
    Forced                      : Yes
    Original source medium      : Blu-ray

    Audio #1
    ID                          : 2
    ID in the original source m : 4355 (0x1103)
    Format                      : AC-3
    Format/Info                 : Audio Coding 3
    Commercial name             : Dolby Digital
    Codec ID                    : A_AC3
    Duration                    : 1 h 44 min
    Bit rate mode               : Constant
    Bit rate                    : 640 kb/s
    Channel(s)                  : 6 channels
    Channel layout              : L R C LFE Ls Rs
    Sampling rate               : 48.0 kHz
    Frame rate                  : 31.250 FPS (1536 SPF)
    Compression mode            : Lossy
    Stream size                 : 479 MiB (2%)
    Title                       : Español Latino [CinemaniaHDD]
    Language                    : Spanish
    Service kind                : Complete Main
    Default                     : Yes
    Forced                      : Yes
    Original source medium      : Blu-ray

    Audio #2
    ID                          : 3
    ID in the original source m : 4352 (0x1100)
    Format                      : DTS XLL
    Format/Info                 : Digital Theater Systems
    Commercial name             : DTS-HD Master Audio
    Codec ID                    : A_DTS
    Duration                    : 1 h 44 min
    Bit rate mode               : Variable
    Bit rate                    : 4 966 kb/s
    Channel(s)                  : 8 channels
    Channel layout              : C L R LFE Lb Rb Lss Rss
    Sampling rate               : 48.0 kHz
    Frame rate                  : 93.750 FPS (512 SPF)
    Bit depth                   : 24 bits
    Compression mode            : Lossless
    Stream size                 : 3.63 GiB (13%)
    Title                       : Ingles [CinemaniaHDD]
    Language                    : English
    Default                     : No
    Forced                      : No
    Original source medium      : Blu-ray

    Text #1
    ID                          : 4
    ID in the original source m : 4620 (0x120C)
    Format                      : PGS
    Muxing mode                 : zlib
    Codec ID                    : S_HDMV/PGS
    Codec ID/Info               : Picture based subtitle format used on BDs/HD-DVDs
    Duration                    : 1 h 27 min
    Bit rate                    : 401 b/s
    Count of elements           : 22
    Stream size                 : 259 KiB (0%)
    Title                       : Forzados-PGS [CinemaniaHDD]
    Language                    : Spanish
    Default                     : No
    Forced                      : No
    Original source medium      : Blu-ray

    Text #2
    ID                          : 5
    ID in the original source m : 4610 (0x1202)
    Format                      : PGS
    Muxing mode                 : zlib
    Codec ID                    : S_HDMV/PGS
    Codec ID/Info               : Picture based subtitle format used on BDs/HD-DVDs
    Duration                    : 1 h 35 min
    Bit rate                    : 35.8 kb/s
    Count of elements           : 2456
    Stream size                 : 24.4 MiB (0%)
    Title                       : Español-PGS [CinemaniaHDD]
    Language                    : Spanish
    Default                     : No
    Forced                      : No
    Original source medium      : Blu-ray

    Text #3
    ID                          : 6
    ID in the original source m : 4608 (0x1200)
    Format                      : PGS
    Muxing mode                 : zlib
    Codec ID                    : S_HDMV/PGS
    Codec ID/Info               : Picture based subtitle format used on BDs/HD-DVDs
    Duration                    : 1 h 44 min
    Bit rate                    : 49.1 kb/s
    Count of elements           : 3580
    Stream size                 : 36.7 MiB (0%)
    Title                       : Ingles [CinemaniaHDD]
    Language                    : English
    Default                     : No
    Forced                      : No
    Original source medium      : Blu-ray

    Text #4
    ID                          : 7
    Format                      : UTF-8
    Codec ID                    : S_TEXT/UTF8
    Codec ID/Info               : UTF-8 Plain Text
    Duration                    : 1 h 27 min
    Bit rate                    : 0 b/s
    Count of elements           : 11
    Stream size                 : 334 Bytes (0%)
    Title                       : Forzados-SRT [CinemaniaHDD]
    Language                    : Spanish
    Default                     : Yes
    Forced                      : Yes

    Text #5
    ID                          : 8
    Format                      : UTF-8
    Codec ID                    : S_TEXT/UTF8
    Codec ID/Info               : UTF-8 Plain Text
    Duration                    : 1 h 35 min
    Bit rate                    : 52 b/s
    Count of elements           : 1222
    Stream size                 : 36.8 KiB (0%)
    Title                       : Español-SRT [CinemaniaHDD]
    Language                    : Spanish
    Default                     : No
    Forced                      : No

    Menu
    00:00:00.000                : Chapter 01
    00:04:20.885                : Chapter 02
    00:04:20.969                : Chapter 03
    00:07:02.922                : Chapter 04
    00:07:03.005                : Chapter 05
    00:11:09.627                : Chapter 06
    00:11:09.710                : Chapter 07
    00:14:14.186                : Chapter 08
    00:14:14.270                : Chapter 09
    00:21:08.934                : Chapter 10
    00:21:09.017                : Chapter 11
    00:27:19.804                : Chapter 12
    00:27:19.888                : Chapter 13
    00:29:42.655                : Chapter 14
    00:29:42.739                : Chapter 15
    00:33:25.420                : Chapter 16
    00:33:25.503                : Chapter 17
    00:38:07.994                : Chapter 18
    00:38:08.077                : Chapter 19
    00:43:50.169                : Chapter 20
    00:43:50.252                : Chapter 21
    00:48:06.049                : Chapter 22
    00:48:06.133                : Chapter 23
    00:50:26.732                : Chapter 24
    00:50:26.815                : Chapter 25
    00:52:30.939                : Chapter 26
    00:52:31.022                : Chapter 27
    00:58:51.986                : Chapter 28
    00:58:52.070                : Chapter 29
    01:05:07.612                : Chapter 30
    01:05:07.695                : Chapter 31
    01:09:47.600                : Chapter 32
    01:09:47.683                : Chapter 33
    01:17:14.463                : Chapter 34
    01:17:14.546                : Chapter 35
    01:23:56.948                : Chapter 36
    01:23:57.032                : Chapter 37
    01:27:24.948                : Chapter 38
    01:27:25.031                : Chapter 39
    01:29:49.926                : Chapter 40
    01:29:50.009                : Chapter 41
    01:32:04.018                : Chapter 42
    01:32:04.101                : Chapter 43
    01:33:11.002                : Chapter 44
    01:33:11.085                : Chapter 45
    01:35:53.748                : Chapter 46
    01:35:53.831                : Chapter 47
    01:37:35.099                : Chapter 48
    01:37:35.182                : Chapter 49
    01:44:43.944                : Chapter 50

  • Peso: 27 GiB

Sinopsis

Descargar The Marvels (2023) REMUX 1080p Latino-CMHDD. Cuando sus obligaciones la envían a un agujero de gusano vinculado a un revolucionario kree, los poderes de Carol Danvers, la capitana Marvel, se entremezclan con los de Kamala Khan, también conocida como la Sra. Marvel y la sobrina de Carol, ahora astronauta de S.A.B.E.R., Monica Rambeau. Juntas, deberán salvar el universo como «The Marvels».

Ficha técnica

Video trailer de la película

Enlaces de descarga

Rip de Bluray

Descargar The Marvels (2023) REMUX 1080p Latino-CMHDD




Aportes de DPeliculasHDmega la pass es:dpeliculashdmega.org Aportes de CinemaniaHD la pass es:cinemaniahdd.com Aportes recientes:cinemaniahdd.net
Guardado en : Acción , Aventura , Ciencia ficción , Remux

Películas relacionadas

descargar The Marvels (2023) REMUX 1080p Latino-CMHDD Full 1080p 1080p gratis, The Marvels (2023) REMUX 1080p Latino-CMHDD Full 1080p mega 1 link, The Marvels (2023) REMUX 1080p Latino-CMHDD Full 1080p pelicula completa, descargar The Marvels (2023) REMUX 1080p Latino-CMHDD Full 1080p gratis en mega.

The Marvels (2023) REMUX 1080p Latino-CMHDD pelicula full hd, The Marvels (2023) REMUX 1080p Latino-CMHDD mega latino, The Marvels (2023) REMUX 1080p Latino-CMHDD 4k latino, The Marvels (2023) REMUX 1080p Latino-CMHDD pelicula completa, The Marvels (2023) REMUX 1080p Latino-CMHDD descargar gratis, descargar The Marvels (2023) REMUX 1080p Latino-CMHDD pelicula latino, The Marvels (2023) REMUX 1080p Latino-CMHDD 1 link mega, The Marvels (2023) REMUX 1080p Latino-CMHDD 1 link google drive, The Marvels (2023) REMUX 1080p Latino-CMHDD hd 1080p latino.
Comentarios 0