×

¿Problemas para descargar con Mozilla, EDGE? Deshabilita la opción "Abrir vinculos en una pestaña nueva" tal como lo muestra ésta imagen.

The Marvels (2023) REMUX 4K HDR Latino – CMHDD

144 vistas

Información de The Marvels (2023) REMUX 4K HDR Latino – CMHDD

Datos de la película

  • Calidad: 4K HDR
  • Audio: Se especifica abajo de la Sinopsis
  • Subtitulos: Español Latino SRT- FORZADOS SRT
  • Resolución: 3840x2160p
  • Formato: MKV
  • Codec: H.264
  • Encoder: Dracarys
  • Mediainfo: Clic para Mostrar Datos Ver
  • Format                      : Matroska
    Format version              : Version 4
    File size                   : 42.8 GiB
    Duration                    : 1 h 44 min
    Overall bit rate mode       : Variable
    Overall bit rate            : 58.4 Mb/s
    Movie name                  : The Marvels (2023) REMUX 4K HDR Latino - CMHDD
    Encoded date                : UTC 2024-02-11 01:52:59
    Writing application         : mkvmerge v47.0.0 ('Black Flag') 64-bit
    Writing library             : libebml v1.3.10 + libmatroska v1.5.2

    Video
    ID                          : 1
    Format                      : HEVC
    Format/Info                 : High Efficiency Video Coding
    Format profile              : Main 10@L5.1@High
    HDR format                  : SMPTE ST 2086, HDR10 compatible
    Codec ID                    : V_MPEGH/ISO/HEVC
    Duration                    : 1 h 44 min
    Bit rate                    : 51.7 Mb/s
    Width                       : 3 840 pixels
    Height                      : 2 160 pixels
    Display aspect ratio        : 16:9
    Frame rate mode             : Constant
    Frame rate                  : 23.976 (24000/1001) FPS
    Color space                 : YUV
    Chroma subsampling          : 4:2:0 (Type 2)
    Bit depth                   : 10 bits
    Bits/(Pixel*Frame)          : 0.260
    Stream size                 : 37.9 GiB (89%)
    Language                    : English
    Default                     : Yes
    Forced                      : No
    Color range                 : Limited
    Color primaries             : BT.2020
    Transfer characteristics    : PQ
    Matrix coefficients         : BT.2020 non-constant
    Mastering display color pri : BT.2020
    Mastering display luminance : min: 0.0050 cd/m2, max: 1000 cd/m2

    Audio #1
    ID                          : 2
    Format                      : AC-3
    Format/Info                 : Audio Coding 3
    Commercial name             : Dolby Digital
    Codec ID                    : A_AC3
    Duration                    : 1 h 44 min
    Bit rate mode               : Constant
    Bit rate                    : 640 kb/s
    Channel(s)                  : 6 channels
    Channel layout              : L R C LFE Ls Rs
    Sampling rate               : 48.0 kHz
    Frame rate                  : 31.250 FPS (1536 SPF)
    Compression mode            : Lossy
    Stream size                 : 479 MiB (1%)
    Language                    : Spanish
    Service kind                : Complete Main
    Default                     : Yes
    Forced                      : Yes

    Audio #2
    ID                          : 3
    Format                      : E-AC-3
    Format/Info                 : Enhanced AC-3
    Commercial name             : Dolby Digital Plus
    Format settings             : Dolby Surround EX
    Codec ID                    : A_EAC3
    Duration                    : 1 h 44 min
    Bit rate mode               : Constant
    Bit rate                    : 640 kb/s
    Channel(s)                  : 8 channels
    Channel layout              : L R C LFE Ls Rs Lb Rb
    Sampling rate               : 48.0 kHz
    Frame rate                  : 31.250 FPS (1536 SPF)
    Compression mode            : Lossy
    Stream size                 : 479 MiB (1%)
    Language                    : Spanish
    Service kind                : Complete Main
    Default                     : No
    Forced                      : No

    Audio #3
    ID                          : 4
    Format                      : AC-3
    Format/Info                 : Audio Coding 3
    Commercial name             : Dolby Digital
    Codec ID                    : A_AC3
    Duration                    : 1 h 44 min
    Bit rate mode               : Constant
    Bit rate                    : 640 kb/s
    Channel(s)                  : 6 channels
    Channel layout              : L R C LFE Ls Rs
    Sampling rate               : 48.0 kHz
    Frame rate                  : 31.250 FPS (1536 SPF)
    Compression mode            : Lossy
    Delay relative to video     : 1 s 335 ms
    Stream size                 : 480 MiB (1%)
    Language                    : English
    Service kind                : Complete Main
    Default                     : No
    Forced                      : No

    Audio #4
    ID                          : 5
    Format                      : MLP FBA 16-ch
    Format/Info                 : Meridian Lossless Packing FBA with 16-channel presentation
    Commercial name             : Dolby TrueHD with Dolby Atmos
    Codec ID                    : A_TRUEHD
    Duration                    : 1 h 44 min
    Bit rate mode               : Variable
    Bit rate                    : 4 686 kb/s
    Maximum bit rate            : 8 028 kb/s
    Channel(s)                  : 8 channels
    Channel layout              : L R C LFE Ls Rs Lb Rb
    Sampling rate               : 48.0 kHz
    Frame rate                  : 1 200.000 FPS (40 SPF)
    Compression mode            : Lossless
    Stream size                 : 3.43 GiB (8%)
    Language                    : English
    Default                     : No
    Forced                      : No
    Number of dynamic objects   : 13
    Bed channel count           : 1 channel
    Bed channel configuration   : LFE

    Text #1
    ID                          : 6
    Format                      : UTF-8
    Codec ID                    : S_TEXT/UTF8
    Codec ID/Info               : UTF-8 Plain Text
    Duration                    : 1 h 27 min
    Bit rate                    : 0 b/s
    Frame rate                  : 0.002 FPS
    Count of elements           : 11
    Stream size                 : 334 Bytes (0%)
    Title                       : Forzados SRT
    Language                    : Spanish
    Default                     : Yes
    Forced                      : Yes

    Text #2
    ID                          : 7
    Format                      : UTF-8
    Codec ID                    : S_TEXT/UTF8
    Codec ID/Info               : UTF-8 Plain Text
    Duration                    : 1 h 35 min
    Bit rate                    : 52 b/s
    Frame rate                  : 0.214 FPS
    Count of elements           : 1222
    Stream size                 : 36.6 KiB (0%)
    Title                       : Completos SRT
    Language                    : Spanish
    Default                     : No
    Forced                      : No

    Text #3
    ID                          : 8
    Format                      : PGS
    Muxing mode                 : zlib
    Codec ID                    : S_HDMV/PGS
    Codec ID/Info               : Picture based subtitle format used on BDs/HD-DVDs
    Duration                    : 1 h 35 min
    Bit rate                    : 35.8 kb/s
    Frame rate                  : 0.430 FPS
    Count of elements           : 2456
    Stream size                 : 24.4 MiB (0%)
    Title                       : Completos PGS
    Language                    : Spanish
    Default                     : No
    Forced                      : No

    Menu
    00:00:00.000                : en:Chapter 01
    00:04:20.886                : en:Chapter 02
    00:04:20.969                : en:Chapter 03
    00:07:02.922                : en:Chapter 04
    00:07:03.006                : en:Chapter 05
    00:11:09.627                : en:Chapter 06
    00:11:09.711                : en:Chapter 07
    00:14:14.187                : en:Chapter 08
    00:14:14.270                : en:Chapter 09
    00:21:08.934                : en:Chapter 10
    00:21:09.018                : en:Chapter 11
    00:27:19.805                : en:Chapter 12
    00:27:19.888                : en:Chapter 13
    00:29:42.656                : en:Chapter 14
    00:29:42.739                : en:Chapter 15
    00:33:25.420                : en:Chapter 16
    00:33:25.503                : en:Chapter 17
    00:38:07.994                : en:Chapter 18
    00:38:08.077                : en:Chapter 19
    00:43:50.169                : en:Chapter 20
    00:43:50.253                : en:Chapter 21
    00:48:06.050                : en:Chapter 22
    00:48:06.133                : en:Chapter 23
    00:50:26.732                : en:Chapter 24
    00:50:26.815                : en:Chapter 25
    00:52:30.939                : en:Chapter 26
    00:52:31.023                : en:Chapter 27
    00:58:51.987                : en:Chapter 28
    00:58:52.070                : en:Chapter 29
    01:05:07.612                : en:Chapter 30
    01:05:07.695                : en:Chapter 31
    01:09:47.600                : en:Chapter 32
    01:09:47.683                : en:Chapter 33
    01:17:14.463                : en:Chapter 34
    01:17:14.547                : en:Chapter 35
    01:23:56.949                : en:Chapter 36
    01:23:57.032                : en:Chapter 37
    01:27:24.948                : en:Chapter 38
    01:27:25.031                : en:Chapter 39
    01:29:49.926                : en:Chapter 40
    01:29:50.010                : en:Chapter 41
    01:32:04.018                : en:Chapter 42
    01:32:04.102                : en:Chapter 43
    01:33:11.002                : en:Chapter 44
    01:33:11.085                : en:Chapter 45
    01:35:53.748                : en:Chapter 46
    01:35:53.831                : en:Chapter 47
    01:37:35.099                : en:Chapter 48
    01:37:35.183                : en:Chapter 49
    01:44:44.653                : en:Chapter 50

     

  • Peso: 42.8 GiB

Sinopsis

Cuando sus obligaciones la envían a un agujero de gusano vinculado a un revolucionario kree, los poderes de Carol Danvers, la capitana Marvel, se entremezclan con los de Kamala Khan, también conocida como la Sra. Marvel y la sobrina de Carol, ahora astronauta de S.A.B.E.R., Monica Rambeau. Juntas, deberán salvar el universo como «The Marvels».

 

Latino: AC3 5.1 . E-AC3 7.1  –  Inglés: TrueHD 7.1

Ficha técnica

Video trailer de la película

Enlaces de descarga

Rip de Bluray

Descargar The Marvels (2023) REMUX 4K HDR Latino – CMHDD




Aportes de DPeliculasHDmega la pass es:dpeliculashdmega.org Aportes de CinemaniaHD la pass es:cinemaniahdd.com Aportes recientes:cinemaniahdd.net
Guardado en : Acción , Aventura , Ciencia ficción

Películas relacionadas

descargar The Marvels (2023) REMUX 4K HDR Latino – CMHDD 4K HDR 1080p gratis, The Marvels (2023) REMUX 4K HDR Latino – CMHDD 4K HDR mega 1 link, The Marvels (2023) REMUX 4K HDR Latino – CMHDD 4K HDR pelicula completa, descargar The Marvels (2023) REMUX 4K HDR Latino – CMHDD 4K HDR gratis en mega.

The Marvels (2023) REMUX 4K HDR Latino – CMHDD pelicula full hd, The Marvels (2023) REMUX 4K HDR Latino – CMHDD mega latino, The Marvels (2023) REMUX 4K HDR Latino – CMHDD 4k latino, The Marvels (2023) REMUX 4K HDR Latino – CMHDD pelicula completa, The Marvels (2023) REMUX 4K HDR Latino – CMHDD descargar gratis, descargar The Marvels (2023) REMUX 4K HDR Latino – CMHDD pelicula latino, The Marvels (2023) REMUX 4K HDR Latino – CMHDD 1 link mega, The Marvels (2023) REMUX 4K HDR Latino – CMHDD 1 link google drive, The Marvels (2023) REMUX 4K HDR Latino – CMHDD hd 1080p latino.
Comentarios 0