×

¿Problemas para descargar con Mozilla, EDGE? Deshabilita la opción "Abrir vinculos en una pestaña nueva" tal como lo muestra ésta imagen.

The Marvels (2023) HD 1080p Latino

64 vistas

Información de The Marvels (2023) HD 1080p Latino

Datos de la película

  • Calidad: 1080p
  • Audio: Español Latino AC3 5.1 WEB-DL - Ingles AC3 5.1 BLURAY
  • Subtitulos: Español Latino SRT- FORZADOS SRT
  • Resolución: 1920x804p
  • Formato: MKV
  • Codec: H.264
  • Encoder: Melkor | MTeam
  • Mediainfo: Clic para Mostrar Datos Ver
  • The Marvels (2023) HD 1080p Latino.mkv
    Format                      : Matroska
    Format version              : Version 4
    File size                   : 3.35 GiB
    Duration                    : 1 h 44 min
    Overall bit rate            : 4 579 kb/s
    Movie name                  : The Marvels (2023) CinemaniaHDD.Net
    Encoded date                : UTC 2024-02-07 09:35:17
    Writing application         : mkvmerge v56.1.0 ('My Friend') 64-bit
    Writing library             : libebml v1.4.2 + libmatroska v1.6.4
    Attachments                 : CINEMANIAHD.png
    Site                        : CinemaniaHDD.Net
    Uploader                    : Melkor

    Video
    ID                          : 1
    Format                      : AVC
    Format/Info                 : Advanced Video Codec
    Format profile              : High@L4.1
    Format settings             : CABAC / 5 Ref Frames
    Format settings, CABAC      : Yes
    Format settings, Reference  : 5 frames
    Codec ID                    : V_MPEG4/ISO/AVC
    Duration                    : 1 h 44 min
    Bit rate                    : 3 500 kb/s
    Width                       : 1 920 pixels
    Height                      : 804 pixels
    Display aspect ratio        : 2.40:1
    Frame rate mode             : Constant
    Frame rate                  : 23.976 (24000/1001) FPS
    Color space                 : YUV
    Chroma subsampling          : 4:2:0
    Bit depth                   : 8 bits
    Scan type                   : Progressive
    Bits/(Pixel*Frame)          : 0.095
    Stream size                 : 2.55 GiB (76%)
    Title                       : HD1080p [CinemaniaHDD]
    Writing library             : x264 core 163 r3059 b684ebe0
    Encoding settings           : cabac=1 / ref=5 / deblock=1:-1:-1 / analyse=0x3:0x133 / me=umh / subme=9 / psy=1 / psy_rd=1.00:0.15 / mixed_ref=1 / me_range=16 / chroma_me=1 / trellis=2 / 8x8dct=1 / cqm=0 / deadzone=21,11 / fast_pskip=1 / chroma_qp_offset=-3 / threads=24 / lookahead_threads=2 / sliced_threads=0 / nr=0 / decimate=1 / interlaced=0 / bluray_compat=0 / constrained_intra=0 / bframes=3 / b_pyramid=2 / b_adapt=2 / b_bias=0 / direct=3 / weightb=1 / open_gop=0 / weightp=2 / keyint=240 / keyint_min=24 / scenecut=40 / intra_refresh=0 / rc_lookahead=60 / rc=abr / mbtree=1 / bitrate=3500 / ratetol=1.0 / qcomp=0.60 / qpmin=0 / qpmax=69 / qpstep=4 / vbv_maxrate=62500 / vbv_bufsize=78125 / nal_hrd=none / filler=0 / ip_ratio=1.40 / aq=1:1.00
    Default                     : Yes
    Forced                      : Yes
    Color range                 : Limited
    Color primaries             : BT.709
    Transfer characteristics    : BT.709
    Matrix coefficients         : BT.709

    Audio #1
    ID                          : 2
    Format                      : AC-3
    Format/Info                 : Audio Coding 3
    Commercial name             : Dolby Digital
    Codec ID                    : A_AC3
    Duration                    : 1 h 44 min
    Bit rate mode               : Constant
    Bit rate                    : 640 kb/s
    Channel(s)                  : 6 channels
    Channel layout              : L R C LFE Ls Rs
    Sampling rate               : 48.0 kHz
    Frame rate                  : 31.250 FPS (1536 SPF)
    Compression mode            : Lossy
    Delay relative to video     : -5 ms
    Stream size                 : 479 MiB (14%)
    Title                       : Español Latino [CinemaniaHDD]
    Language                    : Spanish
    Service kind                : Complete Main
    Default                     : Yes
    Forced                      : Yes

    Audio #2
    ID                          : 3
    Format                      : AC-3
    Format/Info                 : Audio Coding 3
    Commercial name             : Dolby Digital
    Codec ID                    : A_AC3
    Duration                    : 1 h 44 min
    Bit rate mode               : Constant
    Bit rate                    : 448 kb/s
    Channel(s)                  : 6 channels
    Channel layout              : L R C LFE Ls Rs
    Sampling rate               : 48.0 kHz
    Frame rate                  : 31.250 FPS (1536 SPF)
    Compression mode            : Lossy
    Delay relative to video     : -5 ms
    Stream size                 : 336 MiB (10%)
    Title                       : Ingles [CinemaniaHDD]
    Service kind                : Complete Main
    Default                     : No
    Forced                      : No

    Text #1
    ID                          : 4
    Format                      : UTF-8
    Codec ID                    : S_TEXT/UTF8
    Codec ID/Info               : UTF-8 Plain Text
    Duration                    : 1 h 27 min
    Bit rate                    : 0 b/s
    Count of elements           : 11
    Stream size                 : 334 Bytes (0%)
    Title                       : Forzados-SRT [CinemaniaHDD]
    Language                    : Spanish
    Default                     : Yes
    Forced                      : Yes

    Text #2
    ID                          : 5
    Format                      : UTF-8
    Codec ID                    : S_TEXT/UTF8
    Codec ID/Info               : UTF-8 Plain Text
    Duration                    : 1 h 35 min
    Bit rate                    : 52 b/s
    Count of elements           : 1222
    Stream size                 : 36.8 KiB (0%)
    Title                       : Español-SRT [CinemaniaHDD]
    Language                    : Spanish
    Default                     : No
    Forced                      : No

    Text #3
    ID                          : 6
    Format                      : UTF-8
    Codec ID                    : S_TEXT/UTF8
    Codec ID/Info               : UTF-8 Plain Text
    Duration                    : 1 h 35 min
    Bit rate                    : 55 b/s
    Count of elements           : 1371
    Stream size                 : 38.6 KiB (0%)
    Title                       : Ingles-SRT [CinemaniaHDD]
    Language                    : English
    Default                     : No
    Forced                      : No
    Chapters: Yes (Numbers)

    The Marvels (2023) BDRip 1080p Latino[CMHDD].mkv
    File size                   : 10.2 GiB
    Duration                    : 1 h 44 min
    Movie name                  : The Marvels (2023) CinemaniaHDD.Net
    Site                        : CinemaniaHDD.Net
    Uploader                    : Melkor
    Video
    Format                      : AVC x264 High@L4.1
    Bit rate                    : 8 281 kb/s
    Width                       : 1 920 pixels
    Height                      : 804 pixels
    Frame rate                  : 23.976 (24000/1001) FPS
    Audio #1
    Format                      : AC-3
    Bit rate                    : 640 kb/s
    Channel(s)                  : 6 channels
    Sampling rate               : 48.0 kHz
    Title                       : Español Latino [CinemaniaHDD]
    Language                    : Spanish
    Audio #2
    Format                      : DTS XLL
    Bit rate                    : 4 966 kb/s
    Channel(s)                  : 8 channels
    Sampling rate               : 48.0 kHz
    Title                       : Ingles [CinemaniaHDD]
    Language                    : English
    Subtitulos: Yes (SRT)
    Chapters: Yes (Numbers)

  • Peso: 10.2 GiB | 3.35 GiB

Sinopsis

Descargar The Marvels (2023) HD 1080p Latino. Cuando sus obligaciones la envían a un agujero de gusano vinculado a un revolucionario kree, los poderes de Carol Danvers, la capitana Marvel, se entremezclan con los de Kamala Khan, también conocida como la Sra. Marvel y la sobrina de Carol, ahora astronauta de S.A.B.E.R., Monica Rambeau. Juntas, deberán salvar el universo como «The Marvels».

Nota: Version Ligera & Pesada!!!

Ficha técnica

Video trailer de la película

Enlaces de descarga

Rip de Bluray

Descargar The Marvels (2023) HD 1080p Latino




Aportes de DPeliculasHDmega la pass es:dpeliculashdmega.org Aportes de CinemaniaHD la pass es:cinemaniahdd.com Aportes recientes:cinemaniahdd.net

Películas relacionadas

descargar The Marvels (2023) HD 1080p Latino 1080p 1080p gratis, The Marvels (2023) HD 1080p Latino 1080p mega 1 link, The Marvels (2023) HD 1080p Latino 1080p pelicula completa, descargar The Marvels (2023) HD 1080p Latino 1080p gratis en mega.

The Marvels (2023) HD 1080p Latino pelicula full hd, The Marvels (2023) HD 1080p Latino mega latino, The Marvels (2023) HD 1080p Latino 4k latino, The Marvels (2023) HD 1080p Latino pelicula completa, The Marvels (2023) HD 1080p Latino descargar gratis, descargar The Marvels (2023) HD 1080p Latino pelicula latino, The Marvels (2023) HD 1080p Latino 1 link mega, The Marvels (2023) HD 1080p Latino 1 link google drive, The Marvels (2023) HD 1080p Latino hd 1080p latino.
Comentarios 0