×

¿Problemas para descargar con Mozilla, EDGE? Deshabilita la opción "Abrir vinculos en una pestaña nueva" tal como lo muestra ésta imagen.

The Marvels (2023) Full HD 1080p Latino-CMHDD

24 vistas

Información de The Marvels (2023) Full HD 1080p Latino-CMHDD

Datos de la película

  • Calidad: Full 1080p
  • Audio: Español Latino AC3 5.1 BLURAY - Ingles DTS 5.1 BLURAY
  • Subtitulos: Español Latino PGS - Ingles PGS
  • Resolución: 1920x1080p
  • Formato: MKV
  • Codec: H.264
  • Encoder: CinefiloCool
  • Mediainfo: Clic para Mostrar Datos Ver
  • The.Marvels.2023.Bluray.FullHD.1080p.x264.Latino-CC@CMHDD.mkv
    Format                      : Matroska
    Format version              : Version 4
    File size                   : 4.64 GiB
    Duration                    : 1 h 44 min
    Overall bit rate            : 6 338 kb/s
    Movie name                  : The Marvels (2023) CinemaniaHDD.Net
    Encoded date                : UTC 2024-02-08 03:19:51
    Writing application         : mkvmerge v56.1.0 ('My Friend') 64-bit
    Writing library             : libebml v1.4.2 + libmatroska v1.6.4
    Attachments                 : CINEMANIAHD.png

    Video
    ID                          : 1
    Format                      : AVC
    Format/Info                 : Advanced Video Codec
    Format profile              : High@L4.1
    Format settings             : CABAC / 4 Ref Frames
    Format settings, CABAC      : Yes
    Format settings, Reference  : 4 frames
    Codec ID                    : V_MPEG4/ISO/AVC
    Duration                    : 1 h 44 min
    Bit rate                    : 4 144 kb/s
    Width                       : 1 920 pixels
    Height                      : 1 080 pixels
    Display aspect ratio        : 16:9
    Frame rate mode             : Constant
    Frame rate                  : 23.976 (24000/1001) FPS
    Color space                 : YUV
    Chroma subsampling          : 4:2:0
    Bit depth                   : 8 bits
    Scan type                   : Progressive
    Bits/(Pixel*Frame)          : 0.083
    Stream size                 : 3.03 GiB (65%)
    Title                       : Full HD1080p [CinemaniaHDD]
    Writing library             : x264 core 163 r3059 b684ebe0
    Encoding settings           : cabac=1 / ref=4 / deblock=1:0:0 / analyse=0x3:0x133 / me=tesa / subme=11 / psy=1 / psy_rd=1.00:0.00 / mixed_ref=1 / me_range=24 / chroma_me=1 / trellis=2 / 8x8dct=1 / cqm=0 / deadzone=21,11 / fast_pskip=0 / chroma_qp_offset=-2 / threads=24 / lookahead_threads=6 / sliced_threads=0 / nr=0 / decimate=1 / interlaced=0 / bluray_compat=0 / constrained_intra=0 / bframes=16 / b_pyramid=2 / b_adapt=2 / b_bias=0 / direct=3 / weightb=1 / open_gop=0 / weightp=2 / keyint=240 / keyint_min=24 / scenecut=40 / intra_refresh=0 / rc_lookahead=60 / rc=crf / mbtree=1 / crf=19.0 / qcomp=0.60 / qpmin=0 / qpmax=69 / qpstep=4 / vbv_maxrate=62500 / vbv_bufsize=78125 / crf_max=0.0 / nal_hrd=none / filler=0 / ip_ratio=1.40 / aq=1:1.00
    Default                     : Yes
    Forced                      : Yes
    Color range                 : Limited
    Color primaries             : BT.709
    Transfer characteristics    : BT.709
    Matrix coefficients         : BT.709

    Audio #1
    ID                          : 2
    Format                      : AC-3
    Format/Info                 : Audio Coding 3
    Commercial name             : Dolby Digital
    Codec ID                    : A_AC3
    Duration                    : 1 h 44 min
    Bit rate mode               : Constant
    Bit rate                    : 640 kb/s
    Channel(s)                  : 6 channels
    Channel layout              : L R C LFE Ls Rs
    Sampling rate               : 48.0 kHz
    Frame rate                  : 31.250 FPS (1536 SPF)
    Compression mode            : Lossy
    Stream size                 : 479 MiB (10%)
    Title                       : Español Latino [CinemaniaHDD]
    Language                    : Spanish
    Service kind                : Complete Main
    Default                     : Yes
    Forced                      : Yes

    Audio #2
    ID                          : 3
    Format                      : DTS
    Format/Info                 : Digital Theater Systems
    Codec ID                    : A_DTS
    Duration                    : 1 h 44 min
    Bit rate mode               : Constant
    Bit rate                    : 1 509 kb/s
    Channel(s)                  : 6 channels
    Channel layout              : C L R Ls Rs LFE
    Sampling rate               : 48.0 kHz
    Frame rate                  : 93.750 FPS (512 SPF)
    Bit depth                   : 24 bits
    Compression mode            : Lossy
    Stream size                 : 1.10 GiB (24%)
    Title                       : Ingles [CinemaniaHDD]
    Language                    : English
    Default                     : No
    Forced                      : No

    Text #1
    ID                          : 4
    ID in the original source m : 4620 (0x120C)
    Format                      : PGS
    Muxing mode                 : zlib
    Codec ID                    : S_HDMV/PGS
    Codec ID/Info               : Picture based subtitle format used on BDs/HD-DVDs
    Duration                    : 1 h 27 min
    Bit rate                    : 401 b/s
    Count of elements           : 22
    Stream size                 : 259 KiB (0%)
    Title                       : Forzados-PGS [CinemaniaHDD]
    Language                    : Spanish
    Default                     : No
    Forced                      : No
    Original source medium      : Blu-ray

    Text #2
    ID                          : 5
    ID in the original source m : 4610 (0x1202)
    Format                      : PGS
    Muxing mode                 : zlib
    Codec ID                    : S_HDMV/PGS
    Codec ID/Info               : Picture based subtitle format used on BDs/HD-DVDs
    Duration                    : 1 h 35 min
    Bit rate                    : 35.8 kb/s
    Count of elements           : 2456
    Stream size                 : 24.4 MiB (1%)
    Title                       : Español-PGS [CinemaniaHDD]
    Language                    : Spanish
    Default                     : No
    Forced                      : No
    Original source medium      : Blu-ray

    Text #3
    ID                          : 6
    ID in the original source m : 4608 (0x1200)
    Format                      : PGS
    Muxing mode                 : zlib
    Codec ID                    : S_HDMV/PGS
    Codec ID/Info               : Picture based subtitle format used on BDs/HD-DVDs
    Duration                    : 1 h 44 min
    Bit rate                    : 49.1 kb/s
    Count of elements           : 3580
    Stream size                 : 36.7 MiB (1%)
    Title                       : Ingles [CinemaniaHDD]
    Language                    : English
    Default                     : No
    Forced                      : No
    Original source medium      : Blu-ray

    Text #4
    ID                          : 7
    Format                      : UTF-8
    Codec ID                    : S_TEXT/UTF8
    Codec ID/Info               : UTF-8 Plain Text
    Duration                    : 1 h 30 min
    Bit rate                    : 0 b/s
    Count of elements           : 12
    Stream size                 : 416 Bytes (0%)
    Title                       : Forzados-SRT [CinemaniaHDD]
    Language                    : Spanish
    Default                     : Yes
    Forced                      : Yes

    Text #5
    ID                          : 8
    Format                      : UTF-8
    Codec ID                    : S_TEXT/UTF8
    Codec ID/Info               : UTF-8 Plain Text
    Duration                    : 1 h 35 min
    Bit rate                    : 52 b/s
    Count of elements           : 1223
    Stream size                 : 36.9 KiB (0%)
    Title                       : Español-SRT [CinemaniaHDD]
    Language                    : Spanish
    Default                     : No
    Forced                      : No

    Menu
    00:00:00.000                : Chapter 01
    00:04:20.885                : Chapter 02
    00:04:20.969                : Chapter 03
    00:07:02.922                : Chapter 04
    00:07:03.005                : Chapter 05
    00:11:09.627                : Chapter 06
    00:11:09.710                : Chapter 07
    00:14:14.186                : Chapter 08
    00:14:14.270                : Chapter 09
    00:21:08.934                : Chapter 10
    00:21:09.017                : Chapter 11
    00:27:19.804                : Chapter 12
    00:27:19.888                : Chapter 13
    00:29:42.655                : Chapter 14
    00:29:42.739                : Chapter 15
    00:33:25.420                : Chapter 16
    00:33:25.503                : Chapter 17
    00:38:07.994                : Chapter 18
    00:38:08.077                : Chapter 19
    00:43:50.169                : Chapter 20
    00:43:50.252                : Chapter 21
    00:48:06.049                : Chapter 22
    00:48:06.133                : Chapter 23
    00:50:26.732                : Chapter 24
    00:50:26.815                : Chapter 25
    00:52:30.939                : Chapter 26
    00:52:31.022                : Chapter 27
    00:58:51.986                : Chapter 28
    00:58:52.070                : Chapter 29
    01:05:07.612                : Chapter 30
    01:05:07.695                : Chapter 31
    01:09:47.600                : Chapter 32
    01:09:47.683                : Chapter 33
    01:17:14.463                : Chapter 34
    01:17:14.546                : Chapter 35
    01:23:56.948                : Chapter 36
    01:23:57.032                : Chapter 37
    01:27:24.948                : Chapter 38
    01:27:25.031                : Chapter 39
    01:29:49.926                : Chapter 40
    01:29:50.009                : Chapter 41
    01:32:04.018                : Chapter 42
    01:32:04.101                : Chapter 43
    01:33:11.002                : Chapter 44
    01:33:11.085                : Chapter 45
    01:35:53.748                : Chapter 46
    01:35:53.831                : Chapter 47
    01:37:35.099                : Chapter 48
    01:37:35.182                : Chapter 49
    01:44:43.944                : Chapter 50

  • Peso: 4.64 GiB

Sinopsis

Descargar The Marvels (2023) Full HD 1080p Latino-CMHDD. Cuando sus obligaciones la envían a un agujero de gusano vinculado a un revolucionario kree, los poderes de Carol Danvers, la capitana Marvel, se entremezclan con los de Kamala Khan, también conocida como la Sra. Marvel y la sobrina de Carol, ahora astronauta de S.A.B.E.R., Monica Rambeau. Juntas, deberán salvar el universo como «The Marvels».

Ficha técnica

Video trailer de la película

Enlaces de descarga

Rip de Bluray

Descargar The Marvels (2023) Full HD 1080p Latino-CMHDD




Aportes de DPeliculasHDmega la pass es:dpeliculashdmega.org Aportes de CinemaniaHD la pass es:cinemaniahdd.com Aportes recientes:cinemaniahdd.net

Películas relacionadas

  • Pobres criaturas (2023) WEB-DL 4K UHD HDR Latino

    Pobres criaturas (2023) WEB-DL 4K UHD HDR Latino

    2023
    Pobres criaturas (2023) WEB-DL 4K UHD HDR Latino

    2h 21m 2023

    Descargar Pobres criaturas (2023) WEB-DL 4K UHD HDR Latino. Bella Baxter es una joven revivida por el...

    Director: Yorgos Lanthimos

    Género: 4K HDR

    Actores: Zen Joshua Poisson

  • Pobres criaturas (2023) WEB-DL 1080p Latino

    Pobres criaturas (2023) WEB-DL 1080p Latino

    2023
    Pobres criaturas (2023) WEB-DL 1080p Latino

    2h 21m 2023

    Descargar Pobres criaturas (2023) WEB-DL 1080p Latino. Bella Baxter es una joven revivida por el brillante...

    Director: Yorgos Lanthimos

    Género: Ciencia ficción

    Actores: Zen Joshua Poisson

  • Wonka (2023) Full HD 1080p Latino-CMHDD

    Wonka (2023) Full HD 1080p Latino-CMHDD

    2023
    Wonka (2023) Full HD 1080p Latino-CMHDD

    1h 57m 2023

    Descargar Wonka (2023) Full HD 1080p Latino-CMHDD. Basada en el personaje que protagoniza "Charlie y...

    Director: Zoe Morgan

    Género: Comedia

    Actores: Tracy Ifeachor

  • Next Goal Wins (2023) Full HD 1080p Latino-CMHDD

    Next Goal Wins (2023) Full HD 1080p Latino-CMHDD

    2023
    Next Goal Wins (2023) Full HD 1080p Latino-CMHDD

    1h 44m 2023

    Descargar Next Goal Wins (2023) Full HD 1080p Latino-CMHDD. Drama deportivo que cuenta la historia del...

    Director: Zack Earl Edwards

    Género: Comedia

    Actores: William Chun

descargar The Marvels (2023) Full HD 1080p Latino-CMHDD Full 1080p 1080p gratis, The Marvels (2023) Full HD 1080p Latino-CMHDD Full 1080p mega 1 link, The Marvels (2023) Full HD 1080p Latino-CMHDD Full 1080p pelicula completa, descargar The Marvels (2023) Full HD 1080p Latino-CMHDD Full 1080p gratis en mega.

The Marvels (2023) Full HD 1080p Latino-CMHDD pelicula full hd, The Marvels (2023) Full HD 1080p Latino-CMHDD mega latino, The Marvels (2023) Full HD 1080p Latino-CMHDD 4k latino, The Marvels (2023) Full HD 1080p Latino-CMHDD pelicula completa, The Marvels (2023) Full HD 1080p Latino-CMHDD descargar gratis, descargar The Marvels (2023) Full HD 1080p Latino-CMHDD pelicula latino, The Marvels (2023) Full HD 1080p Latino-CMHDD 1 link mega, The Marvels (2023) Full HD 1080p Latino-CMHDD 1 link google drive, The Marvels (2023) Full HD 1080p Latino-CMHDD hd 1080p latino.
Comentarios 0