×

¿Problemas para descargar con Mozilla, EDGE? Deshabilita la opción "Abrir vinculos en una pestaña nueva" tal como lo muestra ésta imagen.

The Marvelous Mrs. Maisel (2022) Cuarta Temporada AMZN WEB-DL 1080p Latino

789 vistas

Información de The Marvelous Mrs. Maisel (2022) Cuarta Temporada AMZN WEB-DL 1080p Latino

Datos de la película

  • Calidad: 1080p
  • Audio: Español Latino AC3 5.1 WEB-DL - Ingles AC3 5.1 WEB-DL
  • Subtitulos: Español Latino SRT- FORZADOS SRT
  • Resolución: 1920x1080
  • Formato: MKV
  • Codec: H.264
  • Encoder: cinemaniahdd
  • Mediainfo: Clic para Mostrar Datos Ver
  • The Marvelous Mrs. Maisel T04E01 AMZN WEB-DL 1080p Latino [CNMNHDD].mkv
    Format                      : Matroska
    Format version              : Version 4
    File size                   : 3.90 GiB
    Duration                    : 54 min 45 s
    Overall bit rate            : 10.2 Mb/s
    Movie name                  : The Marvelous Mrs. Maisel S04E01 - Rumble on the Wonder Wheel [1080p] [CBR]
    Encoded date                : UTC 2022-02-18 00:25:31
    Writing application         : mkvmerge v56.1.0 ('My Friend') 64-bit
    Writing library             : libebml v1.4.2 + libmatroska v1.6.4

    Video
    ID                          : 1
    Format                      : AVC
    Format/Info                 : Advanced Video Codec
    Format profile              : High@L4
    Format settings             : CABAC / 4 Ref Frames
    Format settings, CABAC      : Yes
    Format settings, Reference  : 4 frames
    Codec ID                    : V_MPEG4/ISO/AVC
    Duration                    : 54 min 45 s
    Bit rate mode               : Constant
    Bit rate                    : 8 278 kb/s
    Nominal bit rate            : 10 000 kb/s
    Width                       : 1 920 pixels
    Height                      : 1 080 pixels
    Display aspect ratio        : 16:9
    Frame rate mode             : Constant
    Frame rate                  : 23.976 (24000/1001) FPS
    Color space                 : YUV
    Chroma subsampling          : 4:2:0
    Bit depth                   : 8 bits
    Scan type                   : Progressive
    Bits/(Pixel*Frame)          : 0.166
    Stream size                 : 3.17 GiB (81%)
    Title                       : CinemaniaHDD
    Default                     : Yes
    Forced                      : No
    Color range                 : Limited
    Color primaries             : BT.709
    Transfer characteristics    : BT.709
    Matrix coefficients         : BT.709

    Audio #1
    ID                          : 2
    Format                      : AC-3
    Format/Info                 : Audio Coding 3
    Commercial name             : Dolby Digital
    Codec ID                    : A_AC3
    Duration                    : 54 min 45 s
    Bit rate mode               : Constant
    Bit rate                    : 640 kb/s
    Channel(s)                  : 6 channels
    Channel layout              : L R C LFE Ls Rs
    Sampling rate               : 48.0 kHz
    Frame rate                  : 31.250 FPS (1536 SPF)
    Compression mode            : Lossy
    Stream size                 : 251 MiB (6%)
    Title                       : Español latino [CinemaniaHDD]
    Language                    : Spanish
    Service kind                : Complete Main
    Default                     : Yes
    Forced                      : No

    Audio #2
    ID                          : 3
    Format                      : E-AC-3
    Format/Info                 : Enhanced AC-3
    Commercial name             : Dolby Digital Plus
    Codec ID                    : A_EAC3
    Duration                    : 54 min 45 s
    Bit rate mode               : Constant
    Bit rate                    : 640 kb/s
    Channel(s)                  : 6 channels
    Channel layout              : L R C LFE Ls Rs
    Sampling rate               : 48.0 kHz
    Frame rate                  : 31.250 FPS (1536 SPF)
    Compression mode            : Lossy
    Stream size                 : 251 MiB (6%)
    Title                       : Español latino / E-AC3 [CinemaniaHDD]
    Language                    : Spanish
    Service kind                : Complete Main
    Default                     : No
    Forced                      : No

    Audio #3
    ID                          : 4
    Format                      : E-AC-3
    Format/Info                 : Enhanced AC-3
    Commercial name             : Dolby Digital Plus
    Codec ID                    : A_EAC3
    Duration                    : 54 min 45 s
    Bit rate mode               : Constant
    Bit rate                    : 640 kb/s
    Channel(s)                  : 6 channels
    Channel layout              : L R C LFE Ls Rs
    Sampling rate               : 48.0 kHz
    Frame rate                  : 31.250 FPS (1536 SPF)
    Compression mode            : Lossy
    Stream size                 : 251 MiB (6%)
    Title                       : Inglés [CinemaniaHDD]
    Language                    : English
    Service kind                : Complete Main
    Default                     : No
    Forced                      : No

    Text #1
    ID                          : 5
    Format                      : UTF-8
    Codec ID                    : S_TEXT/UTF8
    Codec ID/Info               : UTF-8 Plain Text
    Duration                    : 33 min 14 s
    Bit rate                    : 3 b/s
    Count of elements           : 29
    Stream size                 : 920 Bytes (0%)
    Title                       : Forzados [CinemaniaHDD]
    Language                    : Spanish
    Default                     : No
    Forced                      : Yes

    Text #2
    ID                          : 6
    Format                      : UTF-8
    Codec ID                    : S_TEXT/UTF8
    Codec ID/Info               : UTF-8 Plain Text
    Duration                    : 53 min 26 s
    Bit rate                    : 92 b/s
    Count of elements           : 939
    Stream size                 : 36.4 KiB (0%)
    Title                       : Español latino [CinemaniaHDD]
    Language                    : Spanish
    Default                     : No
    Forced                      : No

    Menu
    00:00:00.000                : Amazon Original
    00:00:05.000                : Title Sequence
    00:00:12.000                : Scene 3
    00:02:42.000                : Scene 4
    00:04:00.000                : Scene 5
    00:06:57.000                : Scene 6
    00:08:59.000                : Scene 7
    00:09:43.000                : Scene 8
    00:10:27.000                : Scene 9
    00:13:13.000                : Scene 10
    00:13:40.000                : Scene 11
    00:14:11.000                : Scene 12
    00:15:10.000                : Scene 13
    00:18:27.000                : Scene 14
    00:21:20.000                : Scene 15
    00:22:31.000                : Scene 16
    00:22:54.000                : Scene 17
    00:25:50.000                : Scene 18
    00:27:14.000                : Scene 19
    00:29:39.000                : Scene 20
    00:32:00.000                : Scene 21
    00:32:08.000                : Scene 22
    00:32:20.000                : Scene 23
    00:35:28.000                : Scene 24
    00:36:28.000                : Scene 25
    00:38:18.000                : Scene 26
    00:42:20.000                : Scene 27
    00:43:46.000                : Scene 28
    00:45:01.000                : Scene 29
    00:45:19.000                : Scene 30
    00:49:21.000                : Scene 31
    00:51:15.000                : End Credits
    00:53:34.000                : Studio Logo

     

  • Peso: 2.94 GiB Aprox ---- 31 GiB in 8 Chapters.

Sinopsis

Estamos en 1960 y soplan aires de cambio. Al intentar pulir su número, Midge encuentra un bolo con libertad creativa total. Pero su compromiso con su oficio y los lugares donde la lleva crean una ruptura entre ella y la familia y los amigos que la rodean.

Ficha técnica

Video trailer de la película

Enlaces de descarga

Rip de Bluray

Descargar The Marvelous Mrs. Maisel (2022) Cuarta Temporada AMZN WEB-DL 1080p Latino




Aportes de DPeliculasHDmega la pass es:dpeliculashdmega.org Aportes de CinemaniaHD la pass es:cinemaniahdd.com
Guardado en : Comedia , Drama , Series

Películas relacionadas

  • M3GAN (2023) AMZN WEB-DL 4K UHD HDR Latino

    M3GAN (2023) AMZN WEB-DL 4K UHD HDR Latino

    2022
    M3GAN (2023) AMZN WEB-DL 4K UHD HDR Latino

    1h 42m 2022

    Descargar M3GAN (2023) AMZN WEB-DL 4K UHD HDR Latino. Cuando Gemma se convierte en la cuidadora de su...

    Director: Stephen W. Moore

    Género: 4K HDR

    Actores: Violet McGraw

  • M3GAN (2022) MA WEB-DL 1080p Latino

    M3GAN (2022) MA WEB-DL 1080p Latino

    2022
    M3GAN (2022) MA WEB-DL 1080p Latino

    1h 42m 2022

    Descargar M3GAN (2022) MA WEB-DL 1080p Latino. Cuando Gemma se convierte en la cuidadora de su sobrina...

    Director: Stephen W. Moore

    Género: Ciencia ficción

    Actores: Violet McGraw

  • Noche sin paz (2022) PLACEBO Full HD 1080p Latino

    Noche sin paz (2022) PLACEBO Full HD 1080p Latino

    2022
    Noche sin paz (2022) PLACEBO Full HD 1080p Latino

    1h 41m 2022

    Descargar Noche sin paz (2022) PLACEBO Full HD 1080p Latino. Cuando un equipo de mercenarios irrumpe...

    Director: Tyshana Hobson

    Género: Acción

    Actores: Yoon Cha-Lee

  • Noche sin paz (2022) HD 1080p Latino

    Noche sin paz (2022) HD 1080p Latino

    2022
    Noche sin paz (2022) HD 1080p Latino

    1h 41m 2022

    Descargar Noche sin paz (2022) HD 1080p Latino. Cuando un equipo de mercenarios irrumpe en Nochebuena...

    Director: Tyshana Hobson

    Género: Acción

    Actores: Yoon Cha-Lee

  • Noche sin paz (2022) REMUX 1080p Latino

    Noche sin paz (2022) REMUX 1080p Latino

    2022
    Noche sin paz (2022) REMUX 1080p Latino

    1h 41m 2022

    Descargar Noche sin paz (2022) REMUX 1080p Latino. Cuando un equipo de mercenarios irrumpe en Nochebuena...

    Director: Tyshana Hobson

    Género: Acción

    Actores: Yoon Cha-Lee

descargar The Marvelous Mrs. Maisel (2022) Cuarta Temporada AMZN WEB-DL 1080p Latino 1080p 1080p gratis, The Marvelous Mrs. Maisel (2022) Cuarta Temporada AMZN WEB-DL 1080p Latino 1080p mega 1 link, The Marvelous Mrs. Maisel (2022) Cuarta Temporada AMZN WEB-DL 1080p Latino 1080p serie completa, descargar The Marvelous Mrs. Maisel (2022) Cuarta Temporada AMZN WEB-DL 1080p Latino 1080p gratis en mega.

The Marvelous Mrs. Maisel (2022) Cuarta Temporada AMZN WEB-DL 1080p Latino pelicula full hd, The Marvelous Mrs. Maisel (2022) Cuarta Temporada AMZN WEB-DL 1080p Latino mega latino, The Marvelous Mrs. Maisel (2022) Cuarta Temporada AMZN WEB-DL 1080p Latino 4k latino, The Marvelous Mrs. Maisel (2022) Cuarta Temporada AMZN WEB-DL 1080p Latino pelicula completa, The Marvelous Mrs. Maisel (2022) Cuarta Temporada AMZN WEB-DL 1080p Latino descargar gratis, descargar The Marvelous Mrs. Maisel (2022) Cuarta Temporada AMZN WEB-DL 1080p Latino pelicula latino, The Marvelous Mrs. Maisel (2022) Cuarta Temporada AMZN WEB-DL 1080p Latino 1 link mega, The Marvelous Mrs. Maisel (2022) Cuarta Temporada AMZN WEB-DL 1080p Latino 1 link google drive, The Marvelous Mrs. Maisel (2022) Cuarta Temporada AMZN WEB-DL 1080p Latino hd 1080p latino.
Comentarios 0