×

¿Problemas para descargar con Mozilla, EDGE? Deshabilita la opción "Abrir vinculos en una pestaña nueva" tal como lo muestra ésta imagen.

The Marvelous Mrs. Maisel (2017-2019) Temporada [1-3] Completas AMZN WEB-DL 1080p Latino

279 vistas

Información de The Marvelous Mrs. Maisel (2017-2019) Temporada [1-3] Completas AMZN WEB-DL 1080p Latino

Datos de la película

  • Calidad: 1080p
  • Audio: Español Latino AC3 5.1 WEB-DL - Ingles AC3 5.1 WEB-DL
  • Subtitulos: Español Latino SRT- FORZADOS SRT
  • Resolución: 1920x1080
  • Formato: MKV
  • Codec: H.264
  • Encoder: cinemaniahdd
  • Mediainfo: Clic para Mostrar Datos Ver
  • The Marvelous Mrs. Maisel T01E01 AMZN WEB-DL 1080p Latino [CNMNHDD].mkv
    Format                      : Matroska
    Format version              : Version 4
    File size                   : 4.10 GiB
    Duration                    : 57 min 54 s
    Overall bit rate            : 10.1 Mb/s
    Movie name                  : The Marvelous Mrs. Maisel S01E01 - Pilot [1080p] [CBR]
    Encoded date                : UTC 2022-02-18 00:56:52
    Writing application         : mkvmerge v59.0.0 ('Shining Star') 64-bit
    Writing library             : libebml v1.4.2 + libmatroska v1.6.4

    Video
    ID                          : 1
    Format                      : AVC
    Format/Info                 : Advanced Video Codec
    Format profile              : High@L4
    Format settings             : CABAC / 4 Ref Frames
    Format settings, CABAC      : Yes
    Format settings, Reference  : 4 frames
    Codec ID                    : V_MPEG4/ISO/AVC
    Duration                    : 57 min 54 s
    Bit rate mode               : Constant
    Bit rate                    : 8 849 kb/s
    Nominal bit rate            : 10 000 kb/s
    Width                       : 1 920 pixels
    Height                      : 1 080 pixels
    Display aspect ratio        : 16:9
    Frame rate mode             : Constant
    Frame rate                  : 23.976 (24000/1001) FPS
    Color space                 : YUV
    Chroma subsampling          : 4:2:0
    Bit depth                   : 8 bits
    Scan type                   : Progressive
    Bits/(Pixel*Frame)          : 0.178
    Stream size                 : 3.58 GiB (87%)
    Title                       : CinemaniaHDD
    Default                     : Yes
    Forced                      : No
    Color range                 : Limited
    Color primaries             : BT.709
    Transfer characteristics    : BT.709
    Matrix coefficients         : BT.709

    Audio #1
    ID                          : 2
    Format                      : E-AC-3
    Format/Info                 : Enhanced AC-3
    Commercial name             : Dolby Digital Plus
    Codec ID                    : A_EAC3
    Duration                    : 57 min 54 s
    Bit rate mode               : Constant
    Bit rate                    : 640 kb/s
    Channel(s)                  : 6 channels
    Channel layout              : L R C LFE Ls Rs
    Sampling rate               : 48.0 kHz
    Frame rate                  : 31.250 FPS (1536 SPF)
    Compression mode            : Lossy
    Stream size                 : 265 MiB (6%)
    Title                       : Español latino [CinemaniaHDD]
    Language                    : Spanish
    Service kind                : Complete Main
    Default                     : Yes
    Forced                      : No

    Audio #2
    ID                          : 3
    Format                      : E-AC-3
    Format/Info                 : Enhanced AC-3
    Commercial name             : Dolby Digital Plus
    Codec ID                    : A_EAC3
    Duration                    : 57 min 54 s
    Bit rate mode               : Constant
    Bit rate                    : 640 kb/s
    Channel(s)                  : 6 channels
    Channel layout              : L R C LFE Ls Rs
    Sampling rate               : 48.0 kHz
    Frame rate                  : 31.250 FPS (1536 SPF)
    Compression mode            : Lossy
    Stream size                 : 265 MiB (6%)
    Title                       : Inglés [CinemaniaHDD]
    Language                    : English
    Service kind                : Complete Main
    Default                     : No
    Forced                      : No

    Text #1
    ID                          : 4
    Format                      : UTF-8
    Codec ID                    : S_TEXT/UTF8
    Codec ID/Info               : UTF-8 Plain Text
    Duration                    : 52 min 14 s
    Bit rate                    : 1 b/s
    Count of elements           : 18
    Stream size                 : 655 Bytes (0%)
    Title                       : Forzados [CinemaniaHDD]
    Language                    : Spanish
    Default                     : No
    Forced                      : Yes

    Text #2
    ID                          : 5
    Format                      : UTF-8
    Codec ID                    : S_TEXT/UTF8
    Codec ID/Info               : UTF-8 Plain Text
    Duration                    : 54 min 38 s
    Bit rate                    : 80 b/s
    Count of elements           : 1002
    Stream size                 : 32.3 KiB (0%)
    Title                       : Español latino [CinemaniaHDD]
    Language                    : Spanish
    Default                     : No
    Forced                      : No

    Menu
    00:00:00.000                : Amazon Studios
    00:00:05.000                : Miriam gives a toast at her own wedding
    00:05:40.000                : Four years later
    00:06:41.000                : Midge will fix it
    00:08:12.000                : Joel tries out a joke on Mitchell
    00:09:39.000                : Midge and Joel head down to the Gaslight Cafe
    00:12:40.000                : Joel goes on stage
    00:14:53.000                : Midge offers a few pointers to improve Joel's act
    00:16:51.000                : Women have their secrets
    00:18:07.000                : Midge goes to pick up the kids
    00:20:36.000                : Midge sees something troubling on the Ed Sullivan Show
    00:23:49.000                : Joel has a minor panic attack
    00:24:57.000                : Midge meets Joel at his office
    00:27:48.000                : Joel has a less than stellar performance
    00:31:34.000                : This isn't the life I wanted
    00:37:08.000                : Midge breaks the news to her parents
    00:40:03.000                : Midge finds comfort in a bottle of wine
    00:41:06.000                : Midge vents her frustrations on stage
    00:47:32.000                : Susie bails Miriam out of jail
    00:51:28.000                : Give 'em just one standing ovation
    00:54:57.000                : End Credits

     

  • Peso: 4.10 GiB Aprox ---- 94 GiB in 26 Chapters.

Sinopsis

Manhattan, año 1958. Miriam Midge Maisel (Rachel Brosnahan) es una mujer cuya vida como esposa y madre da un giro inesperado cuando descubre un talento desconocido para la comedia. Midge cambiará entonces su cómoda existencia en el Upper West Side para hacer monólogos. Una serie de la creador de «Las chicas Gilmore».

Ficha técnica

Video trailer de la película

Enlaces de descarga

Rip de Bluray

Descargar The Marvelous Mrs. Maisel (2017-2019) Temporada [1-3] Completas AMZN WEB-DL 1080p Latino




Aportes de DPeliculasHDmega la pass es:dpeliculashdmega.org Aportes de CinemaniaHD la pass es:cinemaniahdd.com
Guardado en : Comedia , Drama , Series

Películas relacionadas

  • Jaula Mental (2022) HD 1080p Latino

    Jaula Mental (2022) HD 1080p Latino

    2022
    Jaula Mental (2022) HD 1080p Latino

    1h 47m 2022

    Descargar Jaula Mental (2022) HD 1080p Latino. Cuando un asesino que imita otros crímenes comienza a...

    Director: Mauro Borrelli

    Género: Crimen

    Actores: Victoria Fox

  • Jaula Mental (2022) PLACEBO Full HD 1080p Latino

    Jaula Mental (2022) PLACEBO Full HD 1080p Latino

    2022
    Jaula Mental (2022) PLACEBO Full HD 1080p Latino

    1h 47m 2022

    Descargar Jaula Mental (2022) PLACEBO Full HD 1080p Latino. Cuando un asesino que imita otros crímenes...

    Director: Mauro Borrelli

    Género: Crimen

    Actores: Victoria Fox

  • Jaula Mental (2022) REMUX 1080p Latino

    Jaula Mental (2022) REMUX 1080p Latino

    2022
    Jaula Mental (2022) REMUX 1080p Latino

    1h 47m 2022

    Descargar Jaula Mental (2022) REMUX 1080p Latino. Cuando un asesino que imita otros crímenes comienza...

    Director: Mauro Borrelli

    Género: Crimen

    Actores: Victoria Fox

  • Transfusion (2023) HD 1080p Latino

    Transfusion (2023) HD 1080p Latino

    2023
    Transfusion (2023) HD 1080p Latino

    1h 45m 2023

    Descargar Transfusion (2023) HD 1080p Latino. Un antiguo agente de las Fuerzas Especiales se ve empujado...

    Director: Matt Nable

    Género: Crimen

    Actores: Trystan Go

  • Transfusion (2023) PLACEBO Full HD 1080p Latino

    Transfusion (2023) PLACEBO Full HD 1080p Latino

    2023
    Transfusion (2023) PLACEBO Full HD 1080p Latino

    1h 45m 2023

    Descargar Transfusion (2023) PLACEBO Full HD 1080p Latino. Un antiguo agente de las Fuerzas Especiales...

    Director: Matt Nable

    Género: Crimen

    Actores: Trystan Go

descargar The Marvelous Mrs. Maisel (2017-2019) Temporada [1-3] Completas AMZN WEB-DL 1080p Latino 1080p 1080p gratis, The Marvelous Mrs. Maisel (2017-2019) Temporada [1-3] Completas AMZN WEB-DL 1080p Latino 1080p mega 1 link, The Marvelous Mrs. Maisel (2017-2019) Temporada [1-3] Completas AMZN WEB-DL 1080p Latino 1080p serie completa, descargar The Marvelous Mrs. Maisel (2017-2019) Temporada [1-3] Completas AMZN WEB-DL 1080p Latino 1080p gratis en mega.

The Marvelous Mrs. Maisel (2017-2019) Temporada [1-3] Completas AMZN WEB-DL 1080p Latino pelicula full hd, The Marvelous Mrs. Maisel (2017-2019) Temporada [1-3] Completas AMZN WEB-DL 1080p Latino mega latino, The Marvelous Mrs. Maisel (2017-2019) Temporada [1-3] Completas AMZN WEB-DL 1080p Latino 4k latino, The Marvelous Mrs. Maisel (2017-2019) Temporada [1-3] Completas AMZN WEB-DL 1080p Latino pelicula completa, The Marvelous Mrs. Maisel (2017-2019) Temporada [1-3] Completas AMZN WEB-DL 1080p Latino descargar gratis, descargar The Marvelous Mrs. Maisel (2017-2019) Temporada [1-3] Completas AMZN WEB-DL 1080p Latino pelicula latino, The Marvelous Mrs. Maisel (2017-2019) Temporada [1-3] Completas AMZN WEB-DL 1080p Latino 1 link mega, The Marvelous Mrs. Maisel (2017-2019) Temporada [1-3] Completas AMZN WEB-DL 1080p Latino 1 link google drive, The Marvelous Mrs. Maisel (2017-2019) Temporada [1-3] Completas AMZN WEB-DL 1080p Latino hd 1080p latino.
Comentarios 0