The Martian (2015) EXTENDED REMUX 4K HDR Latino – CMHDD

44 vistas
1 estrella2 estrellas3 estrellas4 estrellas5 estrellas (1 votos, promedio: 1,00 de 5)
Cargando...

Información de The Martian (2015) EXTENDED REMUX 4K HDR Latino – CMHDD

Datos de la película

  • Calidad: 4K HDR
  • Audio: Se especifica abajo de la Sinopsis
  • Subtitulos: Español Latino PGS
  • Resolución: 3840x2160p
  • Formato: MKV
  • Codec: H.264
  • Encoder: Dracarys
  • Mediainfo: Clic para Mostrar Datos Ver
  • Format                      : Matroska
    Format version              : Version 4
    File size                   : 40.3 GiB
    Duration                    : 2 h 21 min
    Overall bit rate mode       : Variable
    Overall bit rate            : 40.8 Mb/s
    Movie name                  : The Martian (2015) EXTENDED REMUX 4K HDR Latino - CMHDD
    Encoded date                : UTC 2021-06-21 05:44:19
    Writing application         : mkvmerge v56.1.0 ('My Friend') 64-bit
    Writing library             : libebml v1.4.2 + libmatroska v1.6.4
    Cover                       : Yes
    Attachments                 : cover.jpg

    Video
    ID                          : 1
    Format                      : HEVC
    Format/Info                 : High Efficiency Video Coding
    Format profile              : Main 10@L5.1@High
    HDR format                  : SMPTE ST 2086, HDR10 compatible
    Codec ID                    : V_MPEGH/ISO/HEVC
    Duration                    : 2 h 21 min
    Bit rate                    : 34.7 Mb/s
    Width                       : 3 840 pixels
    Height                      : 2 160 pixels
    Display aspect ratio        : 16:9
    Frame rate mode             : Constant
    Frame rate                  : 23.976 (23976/1000) FPS
    Original frame rate         : 23.976 (24000/1001) FPS
    Color space                 : YUV
    Chroma subsampling          : 4:2:0 (Type 2)
    Bit depth                   : 10 bits
    Bits/(Pixel*Frame)          : 0.175
    Stream size                 : 34.4 GiB (85%)
    Writing library             : ATEME Titan KFE 3.7.3 (4.7.3.1003)
    Default                     : Yes
    Forced                      : No
    Color range                 : Limited
    Color primaries             : BT.2020
    Transfer characteristics    : PQ
    Matrix coefficients         : BT.2020 non-constant
    Mastering display color pri : Display P3
    Mastering display luminance : min: 0.0000 cd/m2, max: 1000 cd/m2

    Audio #1
    ID                          : 2
    Format                      : MLP FBA 16-ch
    Format/Info                 : Meridian Lossless Packing FBA with 16-channel presentation
    Commercial name             : Dolby TrueHD with Dolby Atmos
    Codec ID                    : A_TRUEHD
    Duration                    : 2 h 21 min
    Bit rate mode               : Variable
    Bit rate                    : 5 475 kb/s
    Maximum bit rate            : 5 997 kb/s
    Channel(s)                  : 8 channels
    Channel layout              : L R C LFE Ls Rs Lb Rb
    Sampling rate               : 48.0 kHz
    Frame rate                  : 1 200.000 FPS (40 SPF)
    Compression mode            : Lossless
    Stream size                 : 5.42 GiB (13%)
    Language                    : English
    Default                     : No
    Forced                      : No
    Number of dynamic objects   : 13
    Bed channel count           : 1 channel
    Bed channel configuration   : LFE

    Audio #2
    ID                          : 3
    Format                      : AC-3
    Format/Info                 : Audio Coding 3
    Commercial name             : Dolby Digital
    Codec ID                    : A_AC3
    Duration                    : 2 h 21 min
    Bit rate mode               : Constant
    Bit rate                    : 448 kb/s
    Channel(s)                  : 6 channels
    Channel layout              : L R C LFE Ls Rs
    Sampling rate               : 48.0 kHz
    Frame rate                  : 31.250 FPS (1536 SPF)
    Compression mode            : Lossy
    Stream size                 : 454 MiB (1%)
    Language                    : Spanish
    Service kind                : Complete Main
    Default                     : Yes
    Forced                      : No

    Text #1
    ID                          : 4
    Format                      : PGS
    Muxing mode                 : zlib
    Codec ID                    : S_HDMV/PGS
    Codec ID/Info               : Picture based subtitle format used on BDs/HD-DVDs
    Duration                    : 2 h 21 min
    Bit rate                    : 32.3 kb/s
    Count of elements           : 3326
    Stream size                 : 32.6 MiB (0%)
    Language                    : Spanish
    Default                     : No
    Forced                      : No

    Text #2
    ID                          : 5
    Format                      : PGS
    Muxing mode                 : zlib
    Codec ID                    : S_HDMV/PGS
    Codec ID/Info               : Picture based subtitle format used on BDs/HD-DVDs
    Duration                    : 2 h 21 min
    Bit rate                    : 64.2 kb/s
    Count of elements           : 5044
    Stream size                 : 64.9 MiB (0%)
    Language                    : Spanish
    Default                     : Yes
    Forced                      : No

    Menu
    00:00:00.000                : Chapter 01
    00:03:22.285                : Chapter 02
    00:10:08.983                : Chapter 03
    00:15:24.590                : Chapter 04
    00:18:25.187                : Chapter 05
    00:21:34.376                : Chapter 06
    00:24:28.091                : Chapter 07
    00:28:52.689                : Chapter 08
    00:31:36.644                : Chapter 09
    00:34:21.100                : Chapter 10
    00:39:13.434                : Chapter 11
    00:41:21.770                : Chapter 12
    00:46:23.530                : Chapter 13
    00:49:25.086                : Chapter 14
    00:56:15.747                : Chapter 15
    00:59:40.493                : Chapter 16
    01:02:23.823                : Chapter 17
    01:06:53.133                : Chapter 18
    01:09:52.980                : Chapter 19
    01:13:51.301                : Chapter 20
    01:18:38.254                : Chapter 21
    01:22:52.467                : Chapter 22
    01:30:41.268                : Chapter 23
    01:37:30.093                : Chapter 24
    01:43:31.997                : Chapter 25
    01:46:16.286                : Chapter 26
    01:50:18.736                : Chapter 27
    01:54:07.965                : Chapter 28
    01:57:49.311                : Chapter 29
    02:04:41.682                : Chapter 30
    02:11:05.732                : Chapter 31
    02:13:28.792                : Chapter 32

  • Peso: 40.3 GiB

Sinopsis

El astronauta Mark Watney, un botánico e ingeniero mecánico de la NASA, se ve atrapado en el planeta Marte cuando la tripulación del Ares 3 debe evacuar su lugar de aterrizaje ante una tormenta de arena. Sin su tripulación, se ve obligado a encontrar la forma de regresar a la Tierra y sobrevivir confiando en sus habilidades científicas y técnicas, antes de que se le agoten los suministros. Mientras que sus compañeros astronautas piensan que podría estar muerto, Watney comienza a escribir un diario divagando sobre el futuro, después de su muerte. Cuando la NASA descubre a través del satélite que Mark podría estar vivo, comienzan a trabajar sobre su rescate, ocultándoselo al resto del grupo.

 

Latino: AC3 5.1 –  Ingles: TrueHD 7.1

Ficha técnica

Video trailer de la película

Enlaces de descarga

Rip de Bluray

Descargar The Martian (2015) EXTENDED REMUX 4K HDR Latino – CMHDD


Aportes de DPeliculasHDmega la pass es:dpeliculashdmega.org Aportes de CinemaniaHD la pass es:cinemaniahdd.com
Guardado en : Aventura , Ciencia ficción , Drama

Películas relacionadas

  • Howard the Duck (1986) REMUX 1080p Latino – CMHDD

    Howard the Duck (1986) REMUX 1080p Latino – CMHDD

    1986
    Howard the Duck (1986) REMUX 1080p Latino – CMHDD

    0.0 1h 51m 1986

    Desde un lejano planeta, y debido a un error de un laboratorio espacial, llega a La Tierra teletransportado...

    Director: Willard Huyck

    Género: Ciencia ficción

    Actores: Wood Moy

  • Space Jam (1996) REMUX 1080p Latino – CMHDD

    Space Jam (1996) REMUX 1080p Latino – CMHDD

    1996
    Space Jam (1996) REMUX 1080p Latino – CMHDD

    0.0 1h 27m 1996

    Bugs Bunny y su equipo desafían a los Nerdlucks (un grupo de pequeños extraterrestres) a un partido...

    Director: Pamela Cederquist

    Género: Animación

    Actores: William G. Schilling

  • En liberté! (2018) WEB-DL 1080p Latino

    En liberté! (2018) WEB-DL 1080p Latino

    2018
    En liberté! (2018) WEB-DL 1080p Latino

    5.0 1h 48m 2018

    El detective Yvonne es la viuda del jefe de policía Santi, un héroe local en un pueblo de la Riviera...

    Director: Pierre Salvadori

    Género: Comedia

    Actores: Vincent Elbaz

  • S.W.A.T (2019) WEB-DL 1080p Latino

    S.W.A.T (2019) WEB-DL 1080p Latino

    2019
    S.W.A.T (2019) WEB-DL 1080p Latino

    5.0 0h 0m 2019

    Una Unidad de Fuerzas Especiales ha organizado una serie de ejercicios de combate para seleccionar a...

    Director: Ding Sheng

    Género: Acción

    Actores: Zhao Xiaorui

The Martian (2015) EXTENDED REMUX 4K HDR Latino – CMHDD pelicula full hd, The Martian (2015) EXTENDED REMUX 4K HDR Latino – CMHDD mega latino, The Martian (2015) EXTENDED REMUX 4K HDR Latino – CMHDD 4k latino, The Martian (2015) EXTENDED REMUX 4K HDR Latino – CMHDD pelicula completa, The Martian (2015) EXTENDED REMUX 4K HDR Latino – CMHDD descargar gratis, descargar The Martian (2015) EXTENDED REMUX 4K HDR Latino – CMHDD pelicula latino, The Martian (2015) EXTENDED REMUX 4K HDR Latino – CMHDD 1 link mega, The Martian (2015) EXTENDED REMUX 4K HDR Latino – CMHDD 1 link google drive, The Martian (2015) EXTENDED REMUX 4K HDR Latino – CMHDD hd 1080p latino.
Comentarios 0