The Martian (2015) EXTENDED REMUX 1080p Latino – CMHDD

43 vistas
1 estrella2 estrellas3 estrellas4 estrellas5 estrellas (Ninguna valoración todavía)
Cargando...

Información de The Martian (2015) EXTENDED REMUX 1080p Latino – CMHDD

Datos de la película

  • Calidad: Full 1080p
  • Audio: Español Latino AC3 5.1 BLURAY - Ingles DTS-HD Master 7.1 BLURAY
  • Subtitulos: Español Latino PGS
  • Resolución: 1920x1080p
  • Formato: MKV
  • Codec: H.264
  • Encoder: Dracarys
  • Mediainfo: Clic para Mostrar Datos Ver
  • Format                      : Matroska
    Format version              : Version 4
    File size                   : 34.6 GiB
    Duration                    : 2 h 31 min
    Overall bit rate mode       : Variable
    Overall bit rate            : 32.8 Mb/s
    Movie name                  : The Martian (2015) EXTENDED REMUX 1080p Latino - CMHDD
    Encoded date                : UTC 2021-06-21 06:23:23
    Writing application         : mkvmerge v56.1.0 ('My Friend') 64-bit
    Writing library             : libebml v1.4.2 + libmatroska v1.6.4
    Cover                       : Yes
    Attachments                 : cover.jpg / cover.jpg

    Video
    ID                          : 1
    Format                      : AVC
    Format/Info                 : Advanced Video Codec
    Format profile              : High@L4.1
    Format settings             : CABAC / 4 Ref Frames
    Format settings, CABAC      : Yes
    Format settings, Reference  : 4 frames
    Codec ID                    : V_MPEG4/ISO/AVC
    Duration                    : 2 h 31 min
    Bit rate mode               : Variable
    Bit rate                    : 26.9 Mb/s
    Maximum bit rate            : 34.0 Mb/s
    Width                       : 1 920 pixels
    Height                      : 1 080 pixels
    Display aspect ratio        : 16:9
    Frame rate mode             : Constant
    Frame rate                  : 23.976 (23976/1000) FPS
    Original frame rate         : 23.976 (24000/1001) FPS
    Color space                 : YUV
    Chroma subsampling          : 4:2:0
    Bit depth                   : 8 bits
    Scan type                   : Progressive
    Bits/(Pixel*Frame)          : 0.540
    Stream size                 : 28.4 GiB (82%)
    Default                     : Yes
    Forced                      : No

    Audio #1
    ID                          : 2
    Format                      : DTS XLL
    Format/Info                 : Digital Theater Systems
    Commercial name             : DTS-HD Master Audio
    Codec ID                    : A_DTS
    Duration                    : 2 h 31 min
    Bit rate mode               : Variable
    Bit rate                    : 4 968 kb/s
    Channel(s)                  : 8 channels
    Channel layout              : C L R LFE Lb Rb Lss Rss
    Sampling rate               : 48.0 kHz
    Frame rate                  : 93.750 FPS (512 SPF)
    Bit depth                   : 24 bits
    Compression mode            : Lossless
    Stream size                 : 5.25 GiB (15%)
    Language                    : English
    Default                     : No
    Forced                      : No

    Audio #2
    ID                          : 3
    Format                      : AC-3
    Format/Info                 : Audio Coding 3
    Commercial name             : Dolby Digital
    Codec ID                    : A_AC3
    Duration                    : 2 h 31 min
    Bit rate mode               : Constant
    Bit rate                    : 448 kb/s
    Channel(s)                  : 6 channels
    Channel layout              : L R C LFE Ls Rs
    Sampling rate               : 48.0 kHz
    Frame rate                  : 31.250 FPS (1536 SPF)
    Compression mode            : Lossy
    Stream size                 : 485 MiB (1%)
    Language                    : English
    Service kind                : Complete Main
    Default                     : No
    Forced                      : No

    Audio #3
    ID                          : 4
    Format                      : AC-3
    Format/Info                 : Audio Coding 3
    Commercial name             : Dolby Digital
    Codec ID                    : A_AC3
    Duration                    : 2 h 31 min
    Bit rate mode               : Constant
    Bit rate                    : 448 kb/s
    Channel(s)                  : 6 channels
    Channel layout              : L R C LFE Ls Rs
    Sampling rate               : 48.0 kHz
    Frame rate                  : 31.250 FPS (1536 SPF)
    Compression mode            : Lossy
    Stream size                 : 485 MiB (1%)
    Language                    : Spanish
    Service kind                : Complete Main
    Default                     : Yes
    Forced                      : No

    Text #1
    ID                          : 5
    Format                      : PGS
    Muxing mode                 : zlib
    Codec ID                    : S_HDMV/PGS
    Codec ID/Info               : Picture based subtitle format used on BDs/HD-DVDs
    Duration                    : 2 h 29 min
    Bit rate                    : 33.7 kb/s
    Count of elements           : 3538
    Stream size                 : 36.2 MiB (0%)
    Language                    : Spanish
    Default                     : No
    Forced                      : No

    Text #2
    ID                          : 6
    Format                      : PGS
    Muxing mode                 : zlib
    Codec ID                    : S_HDMV/PGS
    Codec ID/Info               : Picture based subtitle format used on BDs/HD-DVDs
    Duration                    : 2 h 31 min
    Bit rate                    : 51.4 kb/s
    Count of elements           : 4158
    Stream size                 : 55.5 MiB (0%)
    Language                    : Spanish
    Default                     : Yes
    Forced                      : No

    Menu
    00:00:00.000                : Chapter 01
    00:03:22.285                : Chapter 02
    00:10:15.156                : Chapter 03
    00:15:24.590                : Chapter 04
    00:18:25.187                : Chapter 05
    00:21:58.817                : Chapter 06
    00:24:52.532                : Chapter 07
    00:29:17.130                : Chapter 08
    00:32:01.085                : Chapter 09
    00:34:45.541                : Chapter 10
    00:40:08.155                : Chapter 11
    00:42:48.315                : Chapter 12
    00:47:50.075                : Chapter 13
    00:51:12.736                : Chapter 14
    00:58:03.396                : Chapter 15
    01:01:41.614                : Chapter 16
    01:04:24.944                : Chapter 17
    01:08:54.254                : Chapter 18
    01:11:54.101                : Chapter 19
    01:16:33.505                : Chapter 20
    01:22:05.503                : Chapter 21
    01:26:19.715                : Chapter 22
    01:37:47.653                : Chapter 23
    01:44:36.478                : Chapter 24
    01:50:38.381                : Chapter 25
    01:53:22.670                : Chapter 26
    01:59:17.566                : Chapter 27
    02:03:51.006                : Chapter 28
    02:07:32.352                : Chapter 29
    02:14:24.723                : Chapter 30
    02:20:48.397                : Chapter 31
    02:23:11.832                : Chapter 32

  • Peso: 34.6 GiB

Sinopsis

El astronauta Mark Watney, un botánico e ingeniero mecánico de la NASA, se ve atrapado en el planeta Marte cuando la tripulación del Ares 3 debe evacuar su lugar de aterrizaje ante una tormenta de arena. Sin su tripulación, se ve obligado a encontrar la forma de regresar a la Tierra y sobrevivir confiando en sus habilidades científicas y técnicas, antes de que se le agoten los suministros. Mientras que sus compañeros astronautas piensan que podría estar muerto, Watney comienza a escribir un diario divagando sobre el futuro, después de su muerte. Cuando la NASA descubre a través del satélite que Mark podría estar vivo, comienzan a trabajar sobre su rescate, ocultándoselo al resto del grupo.

Ficha técnica

Video trailer de la película

Enlaces de descarga

Rip de Bluray

Descargar The Martian (2015) EXTENDED REMUX 1080p Latino – CMHDD


Aportes de DPeliculasHDmega la pass es:dpeliculashdmega.org Aportes de CinemaniaHD la pass es:cinemaniahdd.com
Guardado en : Aventura , Ciencia ficción , Drama

Películas relacionadas

  • Howard the Duck (1986) REMUX 1080p Latino – CMHDD

    Howard the Duck (1986) REMUX 1080p Latino – CMHDD

    1986
    Howard the Duck (1986) REMUX 1080p Latino – CMHDD

    0.0 1h 51m 1986

    Desde un lejano planeta, y debido a un error de un laboratorio espacial, llega a La Tierra teletransportado...

    Director: Willard Huyck

    Género: Ciencia ficción

    Actores: Wood Moy

  • Space Jam (1996) REMUX 1080p Latino – CMHDD

    Space Jam (1996) REMUX 1080p Latino – CMHDD

    1996
    Space Jam (1996) REMUX 1080p Latino – CMHDD

    0.0 1h 27m 1996

    Bugs Bunny y su equipo desafían a los Nerdlucks (un grupo de pequeños extraterrestres) a un partido...

    Director: Pamela Cederquist

    Género: Animación

    Actores: William G. Schilling

  • En liberté! (2018) WEB-DL 1080p Latino

    En liberté! (2018) WEB-DL 1080p Latino

    2018
    En liberté! (2018) WEB-DL 1080p Latino

    5.0 1h 48m 2018

    El detective Yvonne es la viuda del jefe de policía Santi, un héroe local en un pueblo de la Riviera...

    Director: Pierre Salvadori

    Género: Comedia

    Actores: Vincent Elbaz

  • S.W.A.T (2019) WEB-DL 1080p Latino

    S.W.A.T (2019) WEB-DL 1080p Latino

    2019
    S.W.A.T (2019) WEB-DL 1080p Latino

    5.0 0h 0m 2019

    Una Unidad de Fuerzas Especiales ha organizado una serie de ejercicios de combate para seleccionar a...

    Director: Ding Sheng

    Género: Acción

    Actores: Zhao Xiaorui

The Martian (2015) EXTENDED REMUX 1080p Latino – CMHDD pelicula full hd, The Martian (2015) EXTENDED REMUX 1080p Latino – CMHDD mega latino, The Martian (2015) EXTENDED REMUX 1080p Latino – CMHDD 4k latino, The Martian (2015) EXTENDED REMUX 1080p Latino – CMHDD pelicula completa, The Martian (2015) EXTENDED REMUX 1080p Latino – CMHDD descargar gratis, descargar The Martian (2015) EXTENDED REMUX 1080p Latino – CMHDD pelicula latino, The Martian (2015) EXTENDED REMUX 1080p Latino – CMHDD 1 link mega, The Martian (2015) EXTENDED REMUX 1080p Latino – CMHDD 1 link google drive, The Martian (2015) EXTENDED REMUX 1080p Latino – CMHDD hd 1080p latino.
Comentarios 0