×

¿Problemas para descargar con Mozilla, EDGE? Deshabilita la opción "Abrir vinculos en una pestaña nueva" tal como lo muestra ésta imagen.

The Marksman (2021) [Open Matte] AMZN WEB-DL 1080p Latino

175 vistas

Información de The Marksman (2021) [Open Matte] AMZN WEB-DL 1080p Latino

Datos de la película

  • Calidad: 1080p
  • Audio: Español Latino AC3 2.0 WEB-DL - Ingles AC3 5.1 WEB-DL
  • Subtitulos: Español Latino SRT- FORZADOS SRT
  • Resolución: 1920x1080
  • Formato: MKV
  • Codec: H.264
  • Encoder: cinemaniahdd
  • Mediainfo: Clic para Mostrar Datos Ver
  • The Marksman (2021) [Open Matte] AMZN WEB-DL 1080p Latino [CNMNHDD].mkv
    Format                      : Matroska
    Format version              : Version 4
    File size                   : 7.17 GiB
    Duration                    : 1 h 47 min
    Overall bit rate            : 9 552 kb/s
    Movie name                  : The Marksman (2021) - Open Matte [1080p] - CinemaniaHDD.Net
    Encoded date                : UTC 2023-07-08 19:39:42
    Writing application         : mkvmerge v56.1.0 ('My Friend') 64-bit
    Writing library             : libebml v1.4.2 + libmatroska v1.6.4

    Video
    ID                          : 1
    Format                      : AVC
    Format/Info                 : Advanced Video Codec
    Format profile              : High@L4
    Format settings             : CABAC / 4 Ref Frames
    Format settings, CABAC      : Yes
    Format settings, Reference  : 4 frames
    Codec ID                    : V_MPEG4/ISO/AVC
    Duration                    : 1 h 47 min
    Bit rate mode               : Constant
    Bit rate                    : 8 302 kb/s
    Nominal bit rate            : 10 000 kb/s
    Width                       : 1 920 pixels
    Height                      : 1 080 pixels
    Display aspect ratio        : 16:9
    Frame rate mode             : Constant
    Frame rate                  : 23.976 (24000/1001) FPS
    Color space                 : YUV
    Chroma subsampling          : 4:2:0
    Bit depth                   : 8 bits
    Scan type                   : Progressive
    Bits/(Pixel*Frame)          : 0.167
    Stream size                 : 6.23 GiB (87%)
    Title                       : CinemaniaHDD
    Default                     : Yes
    Forced                      : No
    Color range                 : Limited
    Color primaries             : BT.709
    Transfer characteristics    : BT.709
    Matrix coefficients         : BT.709

    Audio #1
    ID                          : 2
    Format                      : AC-3
    Format/Info                 : Audio Coding 3
    Commercial name             : Dolby Digital
    Codec ID                    : A_AC3
    Duration                    : 1 h 47 min
    Bit rate mode               : Constant
    Bit rate                    : 384 kb/s
    Channel(s)                  : 2 channels
    Channel layout              : L R
    Sampling rate               : 48.0 kHz
    Frame rate                  : 31.250 FPS (1536 SPF)
    Compression mode            : Lossy
    Stream size                 : 295 MiB (4%)
    Title                       : Español latino [CinemaniaHDD]
    Language                    : Spanish
    Service kind                : Complete Main
    Default                     : Yes
    Forced                      : No

    Audio #2
    ID                          : 3
    Format                      : E-AC-3
    Format/Info                 : Enhanced AC-3
    Commercial name             : Dolby Digital Plus
    Codec ID                    : A_EAC3
    Duration                    : 1 h 47 min
    Bit rate mode               : Constant
    Bit rate                    : 224 kb/s
    Channel(s)                  : 2 channels
    Channel layout              : L R
    Sampling rate               : 48.0 kHz
    Frame rate                  : 31.250 FPS (1536 SPF)
    Compression mode            : Lossy
    Stream size                 : 172 MiB (2%)
    Title                       : Español latino / E-AC3 [CinemaniaHDD]
    Language                    : Spanish
    Service kind                : Complete Main
    Default                     : No
    Forced                      : No

    Audio #3
    ID                          : 4
    Format                      : E-AC-3
    Format/Info                 : Enhanced AC-3
    Commercial name             : Dolby Digital Plus
    Codec ID                    : A_EAC3
    Duration                    : 1 h 47 min
    Bit rate mode               : Constant
    Bit rate                    : 640 kb/s
    Channel(s)                  : 6 channels
    Channel layout              : L R C LFE Ls Rs
    Sampling rate               : 48.0 kHz
    Frame rate                  : 31.250 FPS (1536 SPF)
    Compression mode            : Lossy
    Stream size                 : 492 MiB (7%)
    Title                       : Inglés [CinemaniaHDD]
    Language                    : English
    Service kind                : Complete Main
    Default                     : No
    Forced                      : No

    Text #1
    ID                          : 5
    Format                      : UTF-8
    Codec ID                    : S_TEXT/UTF8
    Codec ID/Info               : UTF-8 Plain Text
    Duration                    : 1 h 35 min
    Bit rate                    : 0 b/s
    Count of elements           : 25
    Stream size                 : 506 Bytes (0%)
    Title                       : Forzados [CinemaniaHDD]
    Language                    : Spanish
    Default                     : Yes
    Forced                      : Yes

    Text #2
    ID                          : 6
    Format                      : UTF-8
    Codec ID                    : S_TEXT/UTF8
    Codec ID/Info               : UTF-8 Plain Text
    Duration                    : 1 h 35 min
    Bit rate                    : 28 b/s
    Count of elements           : 850
    Stream size                 : 20.2 KiB (0%)
    Title                       : Español latino [CinemaniaHDD]
    Language                    : Spanish
    Default                     : No
    Forced                      : No

    Text #3
    ID                          : 7
    Format                      : UTF-8
    Codec ID                    : S_TEXT/UTF8
    Codec ID/Info               : UTF-8 Plain Text
    Duration                    : 1 h 40 min
    Bit rate                    : 29 b/s
    Count of elements           : 865
    Stream size                 : 21.5 KiB (0%)
    Title                       : Inglés [CinemaniaHDD]
    Language                    : English
    Default                     : No
    Forced                      : No

    Menu
    00:00:00.000                : :Chapter 1
    00:09:43.416                : :Chapter 2
    00:18:07.002                : :Chapter 3
    00:27:57.008                : :Chapter 4
    00:40:06.570                : :Chapter 5
    00:51:09.524                : :Chapter 6
    01:01:57.380                : :Chapter 7
    01:10:22.134                : :Chapter 8
    01:20:10.263                : :Chapter 9
    01:30:26.045                : :Chapter 10
    01:40:41.368                : :Chapter 11

     

  • Peso: 7.17 GiB

Sinopsis

Un ranchero en la frontera de Arizona se convierte en el improbable defensor de un joven mexicano que huye desesperadamente de los asesinos del cartel que lo han perseguido hasta Estados Unidos.

Ficha técnica

Video trailer de la película

Enlaces de descarga

Rip de Bluray

Descargar The Marksman (2021) [Open Matte] AMZN WEB-DL 1080p Latino




Aportes de DPeliculasHDmega la pass es:dpeliculashdmega.org Aportes de CinemaniaHD la pass es:cinemaniahdd.com Aportes recientes:cinemaniahdd.net
Guardado en : Acción , OPEN MATTE

Películas relacionadas

descargar The Marksman (2021) [Open Matte] AMZN WEB-DL 1080p Latino 1080p 1080p gratis, The Marksman (2021) [Open Matte] AMZN WEB-DL 1080p Latino 1080p mega 1 link, The Marksman (2021) [Open Matte] AMZN WEB-DL 1080p Latino 1080p pelicula completa, descargar The Marksman (2021) [Open Matte] AMZN WEB-DL 1080p Latino 1080p gratis en mega.

The Marksman (2021) [Open Matte] AMZN WEB-DL 1080p Latino pelicula full hd, The Marksman (2021) [Open Matte] AMZN WEB-DL 1080p Latino mega latino, The Marksman (2021) [Open Matte] AMZN WEB-DL 1080p Latino 4k latino, The Marksman (2021) [Open Matte] AMZN WEB-DL 1080p Latino pelicula completa, The Marksman (2021) [Open Matte] AMZN WEB-DL 1080p Latino descargar gratis, descargar The Marksman (2021) [Open Matte] AMZN WEB-DL 1080p Latino pelicula latino, The Marksman (2021) [Open Matte] AMZN WEB-DL 1080p Latino 1 link mega, The Marksman (2021) [Open Matte] AMZN WEB-DL 1080p Latino 1 link google drive, The Marksman (2021) [Open Matte] AMZN WEB-DL 1080p Latino hd 1080p latino.
Comentarios 0