×

¿Problemas para descargar con Mozilla, EDGE? Deshabilita la opción "Abrir vinculos en una pestaña nueva" tal como lo muestra ésta imagen.

The Map of Tiny Perfect Things (2021) AMZN WEB-DL 1080p Latino

198 vistas

Información de The Map of Tiny Perfect Things (2021) AMZN WEB-DL 1080p Latino

Datos de la película

  • Calidad: WEBDL
  • Audio: Español Latino E-AC3 5.1 AMAZON - Ingles E-AC3 5.1 AMAZON
  • Subtitulos: Español Latino SRT- FORZADOS SRT
  • Resolución: 1920x1040
  • Formato: MKV
  • Codec: H.264
  • Encoder: cinemaniahdd
  • Mediainfo: Clic para Mostrar Datos Ver
  • The Map of Tiny Perfect Things (2021) AMZN WEB-DL 1080p Latino [CNMNHDD].mkv
    Format                      : Matroska
    Format version              : Version 4
    File size                   : 8.17 GiB
    Duration                    : 1 h 39 min
    Overall bit rate            : 11.8 Mb/s
    Movie name                  : The Map of Tiny Perfect Things (2021) - CinemanaiHDD.Net
    Encoded date                : UTC 2021-02-12 00:50:34
    Writing application         : mkvmerge v51.0.0 ('I Wish') 64-bit
    Writing library             : libebml v1.4.0 + libmatroska v1.6.2

    Video
    ID                          : 1
    Format                      : AVC
    Format/Info                 : Advanced Video Codec
    Format profile              : High@L4
    Format settings             : CABAC / 4 Ref Frames
    Format settings, CABAC      : Yes
    Format settings, Reference  : 4 frames
    Codec ID                    : V_MPEG4/ISO/AVC
    Duration                    : 1 h 39 min
    Bit rate mode               : Constant
    Bit rate                    : 9 248 kb/s
    Nominal bit rate            : 10 000 kb/s
    Width                       : 1 920 pixels
    Height                      : 1 040 pixels
    Display aspect ratio        : 1.85:1
    Frame rate mode             : Constant
    Frame rate                  : 23.976 (24000/1001) FPS
    Color space                 : YUV
    Chroma subsampling          : 4:2:0
    Bit depth                   : 8 bits
    Scan type                   : Progressive
    Bits/(Pixel*Frame)          : 0.193
    Stream size                 : 6.40 GiB (78%)
    Title                       : CinemaniaHDD
    Default                     : Yes
    Forced                      : No
    Color range                 : Limited
    Color primaries             : BT.709
    Transfer characteristics    : BT.709
    Matrix coefficients         : BT.709

    Audio #1
    ID                          : 2
    Format                      : AC-3
    Format/Info                 : Audio Coding 3
    Commercial name             : Dolby Digital
    Codec ID                    : A_AC3
    Duration                    : 1 h 39 min
    Bit rate mode               : Constant
    Bit rate                    : 640 kb/s
    Channel(s)                  : 6 channels
    Channel layout              : L R C LFE Ls Rs
    Sampling rate               : 48.0 kHz
    Frame rate                  : 31.250 FPS (1536 SPF)
    Compression mode            : Lossy
    Stream size                 : 453 MiB (5%)
    Title                       : Español latino - AC3 [CinemaniaHDD]
    Language                    : Spanish
    Service kind                : Complete Main
    Default                     : Yes
    Forced                      : No

    Audio #2
    ID                          : 3
    Format                      : E-AC-3
    Format/Info                 : Enhanced AC-3
    Commercial name             : Dolby Digital Plus
    Codec ID                    : A_EAC3
    Duration                    : 1 h 39 min
    Bit rate mode               : Constant
    Bit rate                    : 640 kb/s
    Channel(s)                  : 6 channels
    Channel layout              : L R C LFE Ls Rs
    Sampling rate               : 48.0 kHz
    Frame rate                  : 31.250 FPS (1536 SPF)
    Compression mode            : Lossy
    Stream size                 : 453 MiB (5%)
    Title                       : Español latino - E-AC3 [CinemaniaHDD]
    Language                    : Spanish
    Service kind                : Complete Main
    Default                     : No
    Forced                      : No

    Audio #3
    ID                          : 4
    Format                      : AC-3
    Format/Info                 : Audio Coding 3
    Commercial name             : Dolby Digital
    Codec ID                    : A_AC3
    Duration                    : 1 h 39 min
    Bit rate mode               : Constant
    Bit rate                    : 640 kb/s
    Channel(s)                  : 6 channels
    Channel layout              : L R C LFE Ls Rs
    Sampling rate               : 48.0 kHz
    Frame rate                  : 31.250 FPS (1536 SPF)
    Compression mode            : Lossy
    Stream size                 : 453 MiB (5%)
    Title                       : Inglés - AC3 [CinemaniaHDD]
    Language                    : English
    Service kind                : Complete Main
    Default                     : No
    Forced                      : No

    Audio #4
    ID                          : 5
    Format                      : E-AC-3
    Format/Info                 : Enhanced AC-3
    Commercial name             : Dolby Digital Plus
    Codec ID                    : A_EAC3
    Duration                    : 1 h 39 min
    Bit rate mode               : Constant
    Bit rate                    : 640 kb/s
    Channel(s)                  : 6 channels
    Channel layout              : L R C LFE Ls Rs
    Sampling rate               : 48.0 kHz
    Frame rate                  : 31.250 FPS (1536 SPF)
    Compression mode            : Lossy
    Stream size                 : 453 MiB (5%)
    Title                       : Inglés - E-AC3 [CinemaniaHDD]
    Language                    : English
    Service kind                : Complete Main
    Default                     : No
    Forced                      : No

    Text #1
    ID                          : 6
    Format                      : UTF-8
    Codec ID                    : S_TEXT/UTF8
    Codec ID/Info               : UTF-8 Plain Text
    Duration                    : 1 h 37 min
    Bit rate                    : 1 b/s
    Count of elements           : 25
    Stream size                 : 912 Bytes (0%)
    Title                       : Forzados [CinemaniaHDD]
    Language                    : Spanish
    Default                     : Yes
    Forced                      : Yes

    Text #2
    ID                          : 7
    Format                      : UTF-8
    Codec ID                    : S_TEXT/UTF8
    Codec ID/Info               : UTF-8 Plain Text
    Duration                    : 1 h 37 min
    Bit rate                    : 49 b/s
    Count of elements           : 1093
    Stream size                 : 35.8 KiB (0%)
    Title                       : Español latino [CinemaniaHDD]
    Language                    : Spanish
    Default                     : No
    Forced                      : No

    Text #3
    ID                          : 8
    Format                      : UTF-8
    Codec ID                    : S_TEXT/UTF8
    Codec ID/Info               : UTF-8 Plain Text
    Duration                    : 1 h 37 min
    Bit rate                    : 72 b/s
    Count of elements           : 1716
    Stream size                 : 51.8 KiB (0%)
    Title                       : Inglés [CinemaniaHDD]
    Language                    : English
    Default                     : No
    Forced                      : No

    Menu
    00:00:00.000                : en:Amazon Original
    00:00:21.000                : en:Studio Logo
    00:00:46.000                : en:Morning
    00:02:32.000                : en:Neighborhood hero
    00:04:45.000                : en:The pool
    00:06:08.000                : en:Mark walks Phoebe home
    00:06:44.000                : en:Infinity
    00:09:06.000                : en:Wishful thinking
    00:09:46.000                : en:Reset
    00:12:07.000                : en:The girl from the pool
    00:17:57.000                : en:Mark goes on a drive with Margaret
    00:23:07.000                : en:The lake
    00:25:06.000                : en:Birthdays
    00:25:49.000                : en:Skate show
    00:27:41.000                : en:The fourth-dimension
    00:28:27.000                : en:Seize the day
    00:31:11.000                : en:Three dimensions
    00:33:00.000                : en:The map
    00:33:41.000                : en:Perfect things
    00:36:08.000                : en:Math tutor
    00:37:42.000                : en:Space-Priests
    00:38:40.000                : en:Date Ideas
    00:40:19.000                : en:Date night
    00:45:27.000                : en:Take it or leave it
    00:51:35.000                : en:Mark's frustration builds up
    00:57:25.000                : en:Mark seeks algebra teachers perspective
    00:59:21.000                : en:Brainstorm
    01:01:43.000                : en:Flight to Tokyo
    01:05:18.000                : en:Abort mission
    01:09:08.000                : en:Back to square one
    01:11:17.000                : en:Mark makes the most of his day
    01:12:29.000                : en:Skating goes wrong
    01:14:44.000                : en:Love story
    01:22:28.000                : en:7 o'clock at the pool
    01:25:32.000                : en:The kiss
    01:31:18.000                : en:Goodbye
    01:35:04.000                : en:End Credits

     

  • Peso: 8.17 GiB

Sinopsis

Dos adolescentes quedan atrapados en un bucle temporal. Él quiere salir de ahí, pero ella desea quedarse en él, y solo mediante el descubrimiento, en conjunto, de los instantes memorables, encontrarán sentido en la monotonía y una oportunidad de liberarse.

Ficha técnica

  • Titulo original: The Map of Tiny Perfect Things
  • Fecha de lanzamiento: 12-02-2021 (United States of America)
  • Director: Ian Samuels
  • Género: Comedia, Drama

Video trailer de la película

Enlaces de descarga

Rip de Bluray

Descargar The Map of Tiny Perfect Things (2021) AMZN WEB-DL 1080p Latino




Aportes de DPeliculasHDmega la pass es:dpeliculashdmega.org Aportes de CinemaniaHD la pass es:cinemaniahdd.com
Guardado en : Comedia , Drama

Películas relacionadas

  • Togo (2022) NF WEB-DL 1080p Latino

    Togo (2022) NF WEB-DL 1080p Latino

    2022
    Togo (2022) NF WEB-DL 1080p Latino

    1h 35m 2022

    Descargar Togo (2022) NF WEB-DL 1080p Latino. Los narcos de poca monta están copando las calles de Montevideo...

    Director: Adrián Caetano

    Género: Crimen

    Actores: Tito Prieto

  • El Ultimo Juego (2021) WEB-DL 1080p Latino

    El Ultimo Juego (2021) WEB-DL 1080p Latino

    2021
    El Ultimo Juego (2021) WEB-DL 1080p Latino

    1h 21m 2021

    Descargar El Ultimo Juego (2021) WEB-DL 1080p Latino. 6 extraños se despiertan dentro de una habitación...

    Director: John David Moffat IV

    Género: Drama

    Actores: Yasmin Irvine

  • DC Liga De Supermascotas (2022) HD 1080p Latino

    DC Liga De Supermascotas (2022) HD 1080p Latino

    2022
    DC Liga De Supermascotas (2022) HD 1080p Latino

    1h 45m 2022

    Descargar DC Liga De Supermascotas (2022) HD 1080p Latino. Krypto el Superperro y Superman son amigos...

    Director: Sam Levine

    Género: Acción

    Actores: Yvette Nicole Brown

descargar The Map of Tiny Perfect Things (2021) AMZN WEB-DL 1080p Latino WEBDL 1080p gratis, The Map of Tiny Perfect Things (2021) AMZN WEB-DL 1080p Latino WEBDL mega 1 link, The Map of Tiny Perfect Things (2021) AMZN WEB-DL 1080p Latino WEBDL pelicula completa, descargar The Map of Tiny Perfect Things (2021) AMZN WEB-DL 1080p Latino WEBDL gratis en mega.

The Map of Tiny Perfect Things (2021) AMZN WEB-DL 1080p Latino pelicula full hd, The Map of Tiny Perfect Things (2021) AMZN WEB-DL 1080p Latino mega latino, The Map of Tiny Perfect Things (2021) AMZN WEB-DL 1080p Latino 4k latino, The Map of Tiny Perfect Things (2021) AMZN WEB-DL 1080p Latino pelicula completa, The Map of Tiny Perfect Things (2021) AMZN WEB-DL 1080p Latino descargar gratis, descargar The Map of Tiny Perfect Things (2021) AMZN WEB-DL 1080p Latino pelicula latino, The Map of Tiny Perfect Things (2021) AMZN WEB-DL 1080p Latino 1 link mega, The Map of Tiny Perfect Things (2021) AMZN WEB-DL 1080p Latino 1 link google drive, The Map of Tiny Perfect Things (2021) AMZN WEB-DL 1080p Latino hd 1080p latino.
Comentarios 0