×

¿Problemas para descargar con Mozilla, EDGE? Deshabilita la opción "Abrir vinculos en una pestaña nueva" tal como lo muestra ésta imagen.

The Mandalorian (2023) Tercera Temporada Web-DL 4K UHD HDR Latino

542 vistas

Información de The Mandalorian (2023) Tercera Temporada Web-DL 4K UHD HDR Latino

Datos de la película

  • Calidad: WEBDL
  • Audio: Se especifica abajo de la Sinopsis
  • Subtitulos: Español Latino SRT- FORZADOS SRT
  • Resolución: 3840x2160p
  • Formato: MKV
  • Codec: HEVC
  • Encoder: CinemaniaHD
  • Mediainfo: Clic para Mostrar Datos Ver
  • The Mandalorian S03E01 (2022) D+ WEB UHD HDR Latino.mkv
    Format                      : Matroska
    Format version              : Version 4
    File size                   : 3.41 GiB
    Duration                    : 35 min 16 s
    Overall bit rate            : 13.8 Mb/s
    Movie name                  : CinemaniaHDD.Net
    Encoded date                : UTC 2023-03-02 00:59:56
    Writing application         : mkvmerge v56.1.0 ('My Friend') 64-bit
    Writing library             : libebml v1.4.2 + libmatroska v1.6.4
    Attachments                 : CINEMANIAHD.png
    Site                        : CinemaniaHDD.Net
    Uploader                    : Melkor

    Video
    ID                          : 1
    Format                      : HEVC
    Format/Info                 : High Efficiency Video Coding
    Format profile              : Main 10@L5@High
    HDR format                  : SMPTE ST 2086, HDR10 compatible
    Codec ID                    : V_MPEGH/ISO/HEVC
    Duration                    : 35 min 16 s
    Bit rate                    : 12.8 Mb/s
    Width                       : 3 840 pixels
    Height                      : 2 160 pixels
    Display aspect ratio        : 16:9
    Frame rate mode             : Constant
    Frame rate                  : 24.000 FPS
    Color space                 : YUV
    Chroma subsampling          : 4:2:0
    Bit depth                   : 10 bits
    Bits/(Pixel*Frame)          : 0.064
    Stream size                 : 3.16 GiB (93%)
    Title                       : Web 2160p HDR [CinemaniaHDD]
    Default                     : Yes
    Forced                      : No
    Color range                 : Limited
    Color primaries             : BT.2020
    Transfer characteristics    : PQ
    Matrix coefficients         : BT.2020 non-constant
    Mastering display color pri : Display P3
    Mastering display luminance : min: 0.0000 cd/m2, max: 1000 cd/m2

    Audio #1
    ID                          : 2
    Format                      : E-AC-3
    Format/Info                 : Enhanced AC-3
    Commercial name             : Dolby Digital Plus
    Codec ID                    : A_EAC3
    Duration                    : 35 min 16 s
    Bit rate mode               : Constant
    Bit rate                    : 256 kb/s
    Channel(s)                  : 6 channels
    Channel layout              : L R C LFE Ls Rs
    Sampling rate               : 48.0 kHz
    Frame rate                  : 31.250 FPS (1536 SPF)
    Compression mode            : Lossy
    Stream size                 : 64.6 MiB (2%)
    Title                       : Español Latino [CinemaniaHDD]
    Language                    : Spanish
    Service kind                : Complete Main
    Default                     : Yes
    Forced                      : Yes

    Audio #2
    ID                          : 3
    Format                      : E-AC-3 JOC
    Format/Info                 : Enhanced AC-3 with Joint Object Coding
    Commercial name             : Dolby Digital Plus with Dolby Atmos
    Codec ID                    : A_EAC3
    Duration                    : 35 min 16 s
    Bit rate mode               : Constant
    Bit rate                    : 768 kb/s
    Channel(s)                  : 6 channels
    Channel layout              : L R C LFE Ls Rs
    Sampling rate               : 48.0 kHz
    Frame rate                  : 31.250 FPS (1536 SPF)
    Compression mode            : Lossy
    Stream size                 : 194 MiB (6%)
    Title                       : Ingles [CinemaniaHDD]
    Language                    : English
    Service kind                : Complete Main
    Default                     : No
    Forced                      : No
    Complexity index            : 16
    Number of dynamic objects   : 15
    Bed channel count           : 1 channel
    Bed channel configuration   : LFE

    Text #1
    ID                          : 4
    Format                      : UTF-8
    Codec ID                    : S_TEXT/UTF8
    Codec ID/Info               : UTF-8 Plain Text
    Duration                    : 7 min 28 s
    Bit rate                    : 0 b/s
    Count of elements           : 2
    Stream size                 : 37.0 Bytes (0%)
    Title                       : Forzados-SRT [CinemaniaHDD]
    Language                    : Spanish
    Default                     : Yes
    Forced                      : Yes

    Text #2
    ID                          : 5
    Format                      : UTF-8
    Codec ID                    : S_TEXT/UTF8
    Codec ID/Info               : UTF-8 Plain Text
    Duration                    : 35 min 3 s
    Bit rate                    : 38 b/s
    Count of elements           : 301
    Stream size                 : 10.0 KiB (0%)
    Title                       : Español-SRT [CinemaniaHDD]
    Language                    : Spanish
    Default                     : No
    Forced                      : No

    Text #3
    ID                          : 6
    Format                      : UTF-8
    Codec ID                    : S_TEXT/UTF8
    Codec ID/Info               : UTF-8 Plain Text
    Duration                    : 32 min 16 s
    Bit rate                    : 43 b/s
    Count of elements           : 303
    Stream size                 : 10.3 KiB (0%)
    Title                       : Ingles-SRT [CinemaniaHDD]
    Language                    : English
    Default                     : No
    Forced                      : No

    Menu
    00:00:04.000                : Recap
    00:00:55.625                : Scene 1
    00:33:52.958                : Credits

  • Peso: 3.50 GiB Aprox C/U

Sinopsis

Descargar The Mandalorian (2023) Temporada 3 Web-DL 4K UHD HDR Latino. Ambientada tras la caída del Imperio y antes de la aparición de la Primera Orden, la serie sigue los pasos de un pistolero solitario en las aventuras que protagoniza en los confines de la galaxia, donde no alcanza la autoridad de la Nueva República.

Audio Español Latino EAC3 5.1 D+ – Ingles EAC3 JOC 5.1 D+

Ficha técnica

Video trailer de la película

Enlaces de descarga

Rip de Bluray

Descargar The Mandalorian (2023) Tercera Temporada Web-DL 4K UHD HDR Latino




Aportes de DPeliculasHDmega la pass es:dpeliculashdmega.org Aportes de CinemaniaHD la pass es:cinemaniahdd.com Aportes recientes:cinemaniahdd.net

Películas relacionadas

descargar The Mandalorian (2023) Tercera Temporada Web-DL 4K UHD HDR Latino WEBDL 1080p gratis, The Mandalorian (2023) Tercera Temporada Web-DL 4K UHD HDR Latino WEBDL mega 1 link, The Mandalorian (2023) Tercera Temporada Web-DL 4K UHD HDR Latino WEBDL serie completa, descargar The Mandalorian (2023) Tercera Temporada Web-DL 4K UHD HDR Latino WEBDL gratis en mega.

The Mandalorian (2023) Tercera Temporada Web-DL 4K UHD HDR Latino pelicula full hd, The Mandalorian (2023) Tercera Temporada Web-DL 4K UHD HDR Latino mega latino, The Mandalorian (2023) Tercera Temporada Web-DL 4K UHD HDR Latino 4k latino, The Mandalorian (2023) Tercera Temporada Web-DL 4K UHD HDR Latino pelicula completa, The Mandalorian (2023) Tercera Temporada Web-DL 4K UHD HDR Latino descargar gratis, descargar The Mandalorian (2023) Tercera Temporada Web-DL 4K UHD HDR Latino pelicula latino, The Mandalorian (2023) Tercera Temporada Web-DL 4K UHD HDR Latino 1 link mega, The Mandalorian (2023) Tercera Temporada Web-DL 4K UHD HDR Latino 1 link google drive, The Mandalorian (2023) Tercera Temporada Web-DL 4K UHD HDR Latino hd 1080p latino.
Comentarios 0