The Mandalorian (2019) Temporada1 DSNY+ WEB-DL 1080p Latino – CMHDD

27.136 vistas
1 estrella2 estrellas3 estrellas4 estrellas5 estrellas (26 votos, promedio: 4,42 de 5)
Cargando...

Información de The Mandalorian (2019) Temporada1 DSNY+ WEB-DL 1080p Latino – CMHDD

Datos de la película

  • Calidad: WEBDL
  • Audio: Se especifica abajo de la Sinopsis
  • Subtitulos: Español Latino SRT- FORZADOS SRT
  • Resolución: 1920x1080
  • Formato: MKV
  • Codec: H.264
  • Encoder: Dracarys
  • Mediainfo: Clic para Mostrar Datos Ver
  • Format                      : Matroska
    Format version              : Version 4
    File size                   : 2.58 GiB
    Duration                    : 39 min 37 s
    Overall bit rate mode       : Variable
    Overall bit rate            : 9 308 kb/s
    Movie name                  : The Mandalorian (2019) [S01E01] DSNY+ WEB-DL 1080p Latino - CMHDD
    Encoded date                : UTC 2020-10-30 21:40:16
    Writing application         : mkvmerge v51.0.0 ('I Wish') 64-bit
    Writing library             : libebml v1.4.0 + libmatroska v1.6.2

    Video
    ID                          : 1
    Format                      : AVC
    Format/Info                 : Advanced Video Codec
    Format profile              : High@L4
    Format settings             : CABAC / 4 Ref Frames
    Format settings, CABAC      : Yes
    Format settings, Reference  : 4 frames
    Codec ID                    : V_MPEG4/ISO/AVC
    Duration                    : 39 min 37 s
    Bit rate mode               : Variable
    Bit rate                    : 8 293 kb/s
    Maximum bit rate            : 12.7 Mb/s
    Width                       : 1 920 pixels
    Height                      : 1 080 pixels
    Display aspect ratio        : 16:9
    Frame rate mode             : Constant
    Frame rate                  : 23.976 (24000/1001) FPS
    Color space                 : YUV
    Chroma subsampling          : 4:2:0
    Bit depth                   : 8 bits
    Scan type                   : Progressive
    Bits/(Pixel*Frame)          : 0.167
    Stream size                 : 2.29 GiB (89%)
    Default                     : Yes
    Forced                      : No
    Color range                 : Limited
    Color primaries             : BT.709
    Transfer characteristics    : BT.709
    Matrix coefficients         : BT.709

    Audio #1
    ID                          : 2
    Format                      : E-AC-3
    Format/Info                 : Enhanced AC-3
    Commercial name             : Dolby Digital Plus
    Codec ID                    : A_EAC3
    Duration                    : 39 min 37 s
    Bit rate mode               : Constant
    Bit rate                    : 256 kb/s
    Channel(s)                  : 6 channels
    Channel layout              : L R C LFE Ls Rs
    Sampling rate               : 48.0 kHz
    Frame rate                  : 31.250 FPS (1536 SPF)
    Compression mode            : Lossy
    Stream size                 : 72.5 MiB (3%)
    Language                    : Spanish
    Service kind                : Complete Main
    Default                     : Yes
    Forced                      : No

    Audio #2
    ID                          : 3
    Format                      : E-AC-3 JOC
    Format/Info                 : Enhanced AC-3 with Joint Object Coding
    Commercial name             : Dolby Digital Plus with Dolby Atmos
    Codec ID                    : A_EAC3
    Duration                    : 39 min 37 s
    Bit rate mode               : Constant
    Bit rate                    : 768 kb/s
    Channel(s)                  : 6 channels
    Channel layout              : L R C LFE Ls Rs
    Sampling rate               : 48.0 kHz
    Frame rate                  : 31.250 FPS (1536 SPF)
    Compression mode            : Lossy
    Stream size                 : 215 MiB (8%)
    Language                    : English
    Service kind                : Complete Main
    Default                     : No
    Forced                      : No
    Complexity index            : 16
    Number of dynamic objects   : 15
    Bed channel count           : 1 channel
    Bed channel configuration   : LFE

    Text #1
    ID                          : 4
    Format                      : UTF-8
    Codec ID                    : S_TEXT/UTF8
    Codec ID/Info               : UTF-8 Plain Text
    Duration                    : 3 min 28 s
    Bit rate                    : 11 b/s
    Count of elements           : 12
    Stream size                 : 304 Bytes (0%)
    Language                    : Spanish
    Default                     : Yes
    Forced                      : No

    Text #2
    ID                          : 5
    Format                      : UTF-8
    Codec ID                    : S_TEXT/UTF8
    Codec ID/Info               : UTF-8 Plain Text
    Duration                    : 37 min 54 s
    Bit rate                    : 27 b/s
    Count of elements           : 295
    Stream size                 : 7.58 KiB (0%)
    Language                    : Spanish
    Default                     : No
    Forced                      : No

  • Peso: 20,1 GiB Total

Sinopsis

Tras las historias de Jango y Boba Fett, otro guerrero emerge en el universo de Star Wars. ‘The Mandalorian’ se sitúa después de la caída del Imperio y antes de la aparición de la Primera Orden. Seguimos las tribulaciones de un pistolero solitario en los confines de la galaxia, lejos de la autoridad de la Nueva República…

 

 

 

Latino: E-AC3 5.1 DSNY+  –  Ingles: E-AC3 5.1 DSNY+

 

Ficha técnica

Video trailer de la película

Enlaces de descarga

Rip de Bluray

Descargar The Mandalorian (2019) Temporada1 DSNY+ WEB-DL 1080p Latino – CMHDD




Aportes de DPeliculasHDmega la pass es:dpeliculashdmega.org Aportes de CinemaniaHD la pass es:cinemaniahdd.com

Películas relacionadas

Comentarios 32
  • John - 11 noviembre, 2020

    los Links de Drive piden acceso

    • Dracarys - 12 noviembre, 2020

      estan muertos

  • Octavio Cesar posadas Martinez - 27 diciembre, 2019

    Gracias por el capitulo 8, Y FELIZ AÑO 2020, saludos

  • Cristobal - 22 diciembre, 2019

    gracias, son los mejores

  • Octavio Cesar posadas Martinez - 19 diciembre, 2019

    Gracias por el capitulo 7, saludos

  • Luis Alexander Batista Bautista - 18 diciembre, 2019

    cuando voy a descargar me envían a pegar un like en google y nunca me aparece la descargar ayúdenme

    • CinemaniaHDD - 18 diciembre, 2019

      Hola, el problema que te sale ya se resolvio hace dias, solo que a ti aun te aparece el acortador de copiar y pegar y es porque tienes la cache antigua aun en tu pc.
      Lo que tienes que hacer es borrar la cache de tu navegador web y despues de eso ya podras acceder al nuevo acortador mas sencillo.

  • Hans Serrano - 15 diciembre, 2019

    es imposible descargar me dice que la página es incorrecta y hago todo lo que me dice hay – era major como estaba antes

    • CinemaniaHDD - 15 diciembre, 2019

      Ya se agrego otro Metodo, Borra el cache de tu navegador web cierra y vuelve a entrar

  • gaston - 14 diciembre, 2019

    No me envía a los links dice error 404

    • CinemaniaHDD - 15 diciembre, 2019

      Ya se agrego otro Metodo, Borra el cache de tu navegador web cierra y vuelve a entrar.

  • freddy - 02 diciembre, 2019

    Muchísimas Gracias por sus aportes, ojala suban todos en 1080p

  • DAVID BELLO - 01 diciembre, 2019

    cual es la clave para descomprimirlosssss

  • miguel rivera - 01 diciembre, 2019

    disculpa amigo, cuando extraigo el rar. me marca error, dice que la contraseña es incorrecta o que el archivo esta dañado para ya lo descargue de todas los enlaces que tienes y me sale lo mismo. La contraseña si es cinemaniahdd verdad o es otra

  • Kike74 - 24 noviembre, 2019

    muchas gracias por estos aportes, de veras estoy muy agradecido!!!

  • gonzalo - 24 noviembre, 2019

    amigo estan caidos los links me he metido en los 10 que hay y todos dicen que se bajaron y el ultimo no deja llegar a los links , una pura vez y no me dejo más , que puedo hacer ???

    • CinemaniaHDD - 24 noviembre, 2019

      Hola, ya actualize todos los link, se le metieron derechos de autor

  • Lamperu - 24 noviembre, 2019

    Se cayeron los links. :c

    • CinemaniaHDD - 24 noviembre, 2019

      Hola, Ya estan resubidos

  • LGSGelo - 22 noviembre, 2019

    El audio del capitulo 3 esta desfasado, saludos !!

    • CinemaniaHDD - 22 noviembre, 2019

      Hola, lo voy a revisar enseguida

      • LGSGelo - 22 noviembre, 2019

        Muchas gracias por subir esta serie !!

      • kevin - 24 noviembre, 2019

        podrias resubir el capitulo 3, esta caído en todo servidor

        • CinemaniaHDD - 24 noviembre, 2019

          Hola, Ya estan resubidos

    • raulo213 - 24 noviembre, 2019

      los eliminaron

      • CinemaniaHDD - 24 noviembre, 2019

        Hola, Ya estan resubidos

  • MECGR - 15 noviembre, 2019

    No sirve el link para el capitulo 2 después de que dice: «Ir al enlace»

    • CinemaniaHDD - 16 noviembre, 2019

      Hola.
      Resolvido

  • Felipe Acevedo - 12 noviembre, 2019

    Muchas gracias por subir el primer capitulo. Lo estaba esperando.

    Saludos desde Chile.

  • Joseee_ET - 12 noviembre, 2019

    Muchas gracias, gran aporte!