×

¿Problemas para descargar con Mozilla, EDGE? Deshabilita la opción "Abrir vinculos en una pestaña nueva" tal como lo muestra ésta imagen.

The Manchurian Candidate (2004) REMUX 1080p Latino – CMHDD

344 vistas

Información de The Manchurian Candidate (2004) REMUX 1080p Latino – CMHDD

Datos de la película

  • Calidad: Full 1080p
  • Audio: Español Latino AC3 5.1 BLURAY - Ingles DTS 5.1 BLURAY
  • Subtitulos: Español Latino SRT- FORZADOS SRT
  • Resolución: 1920x1080p
  • Formato: MKV
  • Codec: H.264
  • Encoder: Dracarys
  • Mediainfo: Clic para Mostrar Datos Ver
  • Format                      : Matroska
    Format version              : Version 4
    File size                   : 32.4 GiB
    Duration                    : 2 h 9 min
    Overall bit rate mode       : Variable
    Overall bit rate            : 35.7 Mb/s
    Movie name                  : The Manchurian Candidate (2004) REMUX 1080p Latino - CMHDD
    Encoded date                : UTC 2020-10-12 00:21:54
    Writing application         : mkvmerge v51.0.0 ('I Wish') 64-bit
    Writing library             : libebml v1.4.0 + libmatroska v1.6.2

    Video
    ID                          : 1
    Format                      : MPEG Video
    Format version              : Version 2
    Format profile              : Main@High
    Format settings             : BVOP
    Format settings, BVOP       : Yes
    Format settings, Matrix     : Default
    Format settings, GOP        : Variable
    Codec ID                    : V_MPEG2
    Codec ID/Info               : MPEG 1 or 2 Video
    Duration                    : 2 h 9 min
    Bit rate mode               : Variable
    Bit rate                    : 32.9 Mb/s
    Maximum bit rate            : 36.0 Mb/s
    Width                       : 1 920 pixels
    Height                      : 1 080 pixels
    Display aspect ratio        : 16:9
    Frame rate mode             : Constant
    Frame rate                  : 23.976 (24000/1001) FPS
    Color space                 : YUV
    Chroma subsampling          : 4:2:0
    Bit depth                   : 8 bits
    Scan type                   : Progressive
    Compression mode            : Lossy
    Bits/(Pixel*Frame)          : 0.662
    Time code of first frame    : 00:59:59:00
    Time code source            : Group of pictures header
    GOP, Open/Closed            : Open
    GOP, Open/Closed of first f : Closed
    Stream size                 : 29.9 GiB (92%)
    Default                     : Yes
    Forced                      : No

    Audio #1
    ID                          : 2
    Format                      : E-AC-3
    Format/Info                 : Enhanced AC-3
    Commercial name             : Dolby Digital Plus
    Codec ID                    : A_EAC3
    Duration                    : 2 h 9 min
    Bit rate mode               : Constant
    Bit rate                    : 640 kb/s
    Channel(s)                  : 6 channels
    Channel layout              : L R C LFE Ls Rs
    Sampling rate               : 48.0 kHz
    Frame rate                  : 31.250 FPS (1536 SPF)
    Compression mode            : Lossy
    Delay relative to video     : 2 s 400 ms
    Stream size                 : 594 MiB (2%)
    Language                    : Spanish
    Service kind                : Complete Main
    Default                     : Yes
    Forced                      : No

    Audio #2
    ID                          : 3
    Format                      : AC-3
    Format/Info                 : Audio Coding 3
    Commercial name             : Dolby Digital
    Codec ID                    : A_AC3
    Duration                    : 2 h 9 min
    Bit rate mode               : Constant
    Bit rate                    : 640 kb/s
    Channel(s)                  : 6 channels
    Channel layout              : L R C LFE Ls Rs
    Sampling rate               : 48.0 kHz
    Frame rate                  : 31.250 FPS (1536 SPF)
    Compression mode            : Lossy
    Delay relative to video     : 2 s 400 ms
    Stream size                 : 594 MiB (2%)
    Language                    : Spanish
    Service kind                : Complete Main
    Default                     : No
    Forced                      : No

    Audio #3
    ID                          : 4
    Format                      : DTS
    Format/Info                 : Digital Theater Systems
    Codec ID                    : A_DTS
    Duration                    : 2 h 9 min
    Bit rate mode               : Constant
    Bit rate                    : 1 509 kb/s
    Channel(s)                  : 6 channels
    Channel layout              : C L R Ls Rs LFE
    Sampling rate               : 48.0 kHz
    Frame rate                  : 93.750 FPS (512 SPF)
    Bit depth                   : 24 bits
    Compression mode            : Lossy
    Stream size                 : 1.37 GiB (4%)
    Language                    : English
    Default                     : No
    Forced                      : No

    Text #1
    ID                          : 5
    Format                      : UTF-8
    Codec ID                    : S_TEXT/UTF8
    Codec ID/Info               : UTF-8 Plain Text
    Duration                    : 2 h 2 min
    Bit rate                    : 56 b/s
    Count of elements           : 1614
    Stream size                 : 50.9 KiB (0%)
    Language                    : Spanish
    Default                     : No
    Forced                      : No

    Text #2
    ID                          : 6
    Format                      : UTF-8
    Codec ID                    : S_TEXT/UTF8
    Codec ID/Info               : UTF-8 Plain Text
    Duration                    : 2 h 2 min
    Bit rate                    : 0 b/s
    Count of elements           : 3
    Stream size                 : 64.0 Bytes (0%)
    Language                    : Spanish
    Default                     : Yes
    Forced                      : No
     

  • Peso: 32.4 GiB

Sinopsis

En sus conferencias, el comandante norteamericano Bennett Marco habla constantemente de la emboscada que sufrió su pelotón en el desierto kuwaití y del heroísmo del sargento Raymond Shaw, que recibió la Medalla de Honor por salvar a sus compañeros. Sin embargo, una serie de pesadillas recurrentes le hacen dudar del heroísmo del sargento. Cuando Shaw, empujado por su madre, la polémica senadora Eleanor Prentiss, se presenta como candidato a la vicepresidencia de los EE.UU., las sospechas de Marco se acrecientan y, a pesar de todos los obstáculos que se le presentan, se lanza a investigar los hechos para encontrar la verdad antes de que Shaw y su equipo lleguen a la Casa Blanca.

Ficha técnica

Video trailer de la película

Enlaces de descarga

Rip de Bluray

Descargar The Manchurian Candidate (2004) REMUX 1080p Latino – CMHDD


Aportes de DPeliculasHDmega la pass es:dpeliculashdmega.org Aportes de CinemaniaHD la pass es:cinemaniahdd.com
Guardado en : Drama , Misterio , Suspenso

Películas relacionadas

descargar The Manchurian Candidate (2004) REMUX 1080p Latino – CMHDD Full 1080p 1080p gratis, The Manchurian Candidate (2004) REMUX 1080p Latino – CMHDD Full 1080p mega 1 link, The Manchurian Candidate (2004) REMUX 1080p Latino – CMHDD Full 1080p pelicula completa, descargar The Manchurian Candidate (2004) REMUX 1080p Latino – CMHDD Full 1080p gratis en mega.

The Manchurian Candidate (2004) REMUX 1080p Latino – CMHDD pelicula full hd, The Manchurian Candidate (2004) REMUX 1080p Latino – CMHDD mega latino, The Manchurian Candidate (2004) REMUX 1080p Latino – CMHDD 4k latino, The Manchurian Candidate (2004) REMUX 1080p Latino – CMHDD pelicula completa, The Manchurian Candidate (2004) REMUX 1080p Latino – CMHDD descargar gratis, descargar The Manchurian Candidate (2004) REMUX 1080p Latino – CMHDD pelicula latino, The Manchurian Candidate (2004) REMUX 1080p Latino – CMHDD 1 link mega, The Manchurian Candidate (2004) REMUX 1080p Latino – CMHDD 1 link google drive, The Manchurian Candidate (2004) REMUX 1080p Latino – CMHDD hd 1080p latino.
Comentarios 0