×

¿Problemas para descargar con Mozilla, EDGE? Deshabilita la opción "Abrir vinculos en una pestaña nueva" tal como lo muestra ésta imagen.

James Bond: El Hombre del Revolver de Oro (1974) REMUX 1080p Latino

295 vistas

Información de James Bond: El Hombre del Revolver de Oro (1974) REMUX 1080p Latino

Datos de la película

  • Calidad: Full 1080p
  • Audio: Español Latino AC3 5.1 BLURAY - Ingles DTS 5.1 BLURAY
  • Subtitulos: Español Latino PGS - Ingles PGS
  • Resolución: 1920x1080p
  • Formato: MKV
  • Codec: H.264
  • Encoder: CinefiloCool
  • Mediainfo: Clic para Mostrar Datos Ver
  • El Hombre Del Revolver De Oro (1974) REMUX 1080p Latino-CMHDD.mkv
    Format                      : Matroska
    Format version              : Version 4
    File size                   : 27.5 GiB
    Duration                    : 2 h 5 min
    Overall bit rate mode       : Variable
    Overall bit rate            : 31.4 Mb/s
    Movie name                  : The Man With The Golden Gun (1974) CinemaniaHDD.Net
    Encoded date                : UTC 2020-06-02 17:07:25
    Writing application         : mkvmerge v46.0.0 ('No Deeper Escape') 64-bit
    Writing library             : libebml v1.3.10 + libmatroska v1.5.2
    Attachments                 : CINEMANIAHD.png

    Video
    ID                          : 1
    Format                      : AVC
    Format/Info                 : Advanced Video Codec
    Format profile              : High@L4.1
    Format settings             : CABAC / 4 Ref Frames
    Format settings, CABAC      : Yes
    Format settings, Reference  : 4 frames
    Codec ID                    : V_MPEG4/ISO/AVC
    Duration                    : 2 h 5 min
    Bit rate mode               : Variable
    Bit rate                    : 27.1 Mb/s
    Maximum bit rate            : 37.0 Mb/s
    Width                       : 1 920 pixels
    Height                      : 1 080 pixels
    Display aspect ratio        : 16:9
    Frame rate mode             : Constant
    Frame rate                  : 23.976 (24000/1001) FPS
    Color space                 : YUV
    Chroma subsampling          : 4:2:0
    Bit depth                   : 8 bits
    Scan type                   : Progressive
    Bits/(Pixel*Frame)          : 0.546
    Stream size                 : 23.7 GiB (86%)
    Title                       : REMUX 1080p [CinemaniaHDD]
    Default                     : Yes
    Forced                      : No
    Color range                 : Limited
    Color primaries             : BT.709
    Transfer characteristics    : BT.709
    Matrix coefficients         : BT.709

    Audio #1
    ID                          : 2
    Format                      : AC-3
    Format/Info                 : Audio Coding 3
    Commercial name             : Dolby Digital
    Codec ID                    : A_AC3
    Duration                    : 2 h 5 min
    Bit rate mode               : Constant
    Bit rate                    : 448 kb/s
    Channel(s)                  : 6 channels
    Channel layout              : L R C LFE Ls Rs
    Sampling rate               : 48.0 kHz
    Frame rate                  : 31.250 FPS (1536 SPF)
    Compression mode            : Lossy
    Stream size                 : 401 MiB (1%)
    Title                       : Español Latino [CinemaniaHDD]
    Language                    : Spanish
    Service kind                : Complete Main
    Default                     : Yes
    Forced                      : No

    Audio #2
    ID                          : 3
    Format                      : DTS XLL
    Format/Info                 : Digital Theater Systems
    Commercial name             : DTS-HD Master Audio
    Codec ID                    : A_DTS
    Duration                    : 2 h 5 min
    Bit rate mode               : Variable
    Bit rate                    : 3 818 kb/s
    Channel(s)                  : 6 channels
    Channel layout              : C L R Ls Rs LFE
    Sampling rate               : 48.0 kHz
    Frame rate                  : 93.750 FPS (512 SPF)
    Bit depth                   : 24 bits
    Compression mode            : Lossless
    Stream size                 : 3.34 GiB (12%)
    Title                       : Ingles [CinemaniaHDD]
    Language                    : English
    Default                     : No
    Forced                      : No

    Text #1
    ID                          : 4
    Format                      : PGS
    Muxing mode                 : zlib
    Codec ID                    : S_HDMV/PGS
    Codec ID/Info               : Picture based subtitle format used on BDs/HD-DVDs
    Duration                    : 2 h 2 min
    Bit rate                    : 32.7 kb/s
    Count of elements           : 2124
    Stream size                 : 28.6 MiB (0%)
    Title                       : Español-PGS [CinemaniaHDD]
    Language                    : Spanish
    Default                     : No
    Forced                      : No

    Text #2
    ID                          : 5
    Format                      : PGS
    Muxing mode                 : zlib
    Codec ID                    : S_HDMV/PGS
    Codec ID/Info               : Picture based subtitle format used on BDs/HD-DVDs
    Duration                    : 2 h 3 min
    Bit rate                    : 30.1 kb/s
    Count of elements           : 2754
    Stream size                 : 26.5 MiB (0%)
    Title                       : Ingles-PGS [CinemaniaHDD]
    Language                    : English
    Default                     : No
    Forced                      : No

    Text #3
    ID                          : 6
    Format                      : UTF-8
    Codec ID                    : S_TEXT/UTF8
    Codec ID/Info               : UTF-8 Plain Text
    Duration                    : 5 s 423 ms
    Bit rate                    : 44 b/s
    Count of elements           : 1
    Stream size                 : 30.0 Bytes (0%)
    Title                       : Forzados-SRT [CinemaniaHDD]
    Language                    : Spanish
    Default                     : Yes
    Forced                      : No

    Text #4
    ID                          : 7
    Format                      : UTF-8
    Codec ID                    : S_TEXT/UTF8
    Codec ID/Info               : UTF-8 Plain Text
    Duration                    : 2 h 2 min
    Bit rate                    : 40 b/s
    Count of elements           : 1062
    Stream size                 : 36.1 KiB (0%)
    Title                       : Español-SRT [CinemaniaHDD]
    Language                    : Spanish
    Default                     : No
    Forced                      : No

    Menu
    00:00:00.000                : en:Logo/Deadly Game
    00:08:18.081                : en:Credits/Main Title
    00:10:49.816                : en:Marked Man
    00:14:58.773                : en:Lucky Charm
    00:19:58.406                : en:Magic Bullet
    00:21:31.874                : en:Gun Master
    00:24:56.745                : en:Lady Killer
    00:28:03.140                : en:"A Water Pistol?"
    00:33:17.996                : en:Misfire
    00:36:42.575                : en:Captive
    00:39:41.129                : en:Welcome Aboard
    00:44:04.267                : en:Titillating Meeting
    00:48:27.988                : en:Hungry Go Bed
    00:51:51.608                : en:Heaven and Hell
    00:56:46.278                : en:Girl Power
    00:58:43.311                : en:Motorboat Mayhem
    01:03:23.800                : en:New Boss
    01:05:25.255                : en:This Moment
    01:07:53.486                : en:Man in the Middle
    01:14:53.197                : en:"An Eye for an Eye"
    01:19:22.800                : en:Chasing Goodnight
    01:27:17.232                : en:Metamorphosis
    01:31:06.670                : en:Goodnight's Signal
    01:33:48.164                : en:Expected Guess
    01:36:57.395                : en:Solar Power Monopoly
    01:42:02.450                : en:A Killer Lunch
    01:45:31.242                : en:Showdown
    01:48:30.212                : en:Fun Palace
    01:52:38.001                : en:Island Escape
    01:58:54.627                : en:Little Rascal
    02:01:59.729                : en:"Goodnight, Sir!"
    02:03:41.414                : en:End Credits

  • Peso: 27.5 GiB

Sinopsis

Descargar James Bond: El Hombre del Revolver de Oro (1974) REMUX 1080p Latino. El superagente británico 007 habrá de vérselas ahora con el más peligroso asesino a sueldo del momento: un hombre llamado Scaramanga, más conocido como el hombre de la pistola de oro, que tratará de deshacerse de Bond con los más sofisticados recursos. La trama tiene a Bond siendo enviado tras el Agitador Solex, un dispositivo que puede aprovechar la energía del sol, confrontando al asesino Francisco Scaramanga, «el hombre de la pistola de oro». La acción culmina en un duelo en el que se asienta el destino del Solex.

Ficha técnica

Video trailer de la película

Enlaces de descarga

Rip de Bluray

Descargar James Bond: El Hombre del Revolver de Oro (1974) REMUX 1080p Latino




Aportes de DPeliculasHDmega la pass es:dpeliculashdmega.org Aportes de CinemaniaHD la pass es:cinemaniahdd.com
Guardado en : Acción , Aventura , Remux , Suspenso

Películas relacionadas

  • Borrego: Sal Del Camino (2022) HD 1080p Latino

    Borrego: Sal Del Camino (2022) HD 1080p Latino

    2022
    Borrego: Sal Del Camino (2022) HD 1080p Latino

    1h 42m 2022

    Descargar Borrego: Sal Del Camino (2022) HD 1080p Latino. Una joven botánica se traslada a un pequeño...

    Director: Jesse Harris

    Género: Crimen

    Actores: Olivia Trujillo

  • Borrego: Sal Del Camino (2022) REMUX 1080p Latino

    Borrego: Sal Del Camino (2022) REMUX 1080p Latino

    2022
    Borrego: Sal Del Camino (2022) REMUX 1080p Latino

    1h 42m 2022

    Descargar Borrego: Sal Del Camino (2022) REMUX 1080p Latino. Una joven botánica se traslada a un pequeño...

    Director: Jesse Harris

    Género: Crimen

    Actores: Olivia Trujillo

  • Tren Bala (2022) WEB-DL 4K UHD HDR Latino

    Tren Bala (2022) WEB-DL 4K UHD HDR Latino

    2022
    Tren Bala (2022) WEB-DL 4K UHD HDR Latino

    2h 7m 2022

    Descargar Tren Bala (2022) WEB-DL 4K UHD HDR Latino. El desafortunado asesino "Catarina" está decidido...

    Director: Paul Barry

    Género: 4K HDR

    Actores: Zooey Miyoshi

  • Tren Bala (2022) AMZN WEB-DL 1080p Latino

    Tren Bala (2022) AMZN WEB-DL 1080p Latino

    2022
    Tren Bala (2022) AMZN WEB-DL 1080p Latino

    2h 7m 2022

    Descargar Tren Bala (2022) AMZN WEB-DL 1080p Latino. Cinco asesinos a sueldo se encuentran a bordo de...

    Director: Paul Barry

    Género: Acción

    Actores: Zooey Miyoshi

descargar James Bond: El Hombre del Revolver de Oro (1974) REMUX 1080p Latino Full 1080p 1080p gratis, James Bond: El Hombre del Revolver de Oro (1974) REMUX 1080p Latino Full 1080p mega 1 link, James Bond: El Hombre del Revolver de Oro (1974) REMUX 1080p Latino Full 1080p pelicula completa, descargar James Bond: El Hombre del Revolver de Oro (1974) REMUX 1080p Latino Full 1080p gratis en mega.

James Bond: El Hombre del Revolver de Oro (1974) REMUX 1080p Latino pelicula full hd, James Bond: El Hombre del Revolver de Oro (1974) REMUX 1080p Latino mega latino, James Bond: El Hombre del Revolver de Oro (1974) REMUX 1080p Latino 4k latino, James Bond: El Hombre del Revolver de Oro (1974) REMUX 1080p Latino pelicula completa, James Bond: El Hombre del Revolver de Oro (1974) REMUX 1080p Latino descargar gratis, descargar James Bond: El Hombre del Revolver de Oro (1974) REMUX 1080p Latino pelicula latino, James Bond: El Hombre del Revolver de Oro (1974) REMUX 1080p Latino 1 link mega, James Bond: El Hombre del Revolver de Oro (1974) REMUX 1080p Latino 1 link google drive, James Bond: El Hombre del Revolver de Oro (1974) REMUX 1080p Latino hd 1080p latino.
Comentarios 0