×

¿Problemas para descargar con Mozilla, EDGE? Deshabilita la opción "Abrir vinculos en una pestaña nueva" tal como lo muestra ésta imagen.

James Bond: El Hombre del Revolver de Oro (1974) 1080p Latino

331 vistas

Información de James Bond: El Hombre del Revolver de Oro (1974) 1080p Latino

Datos de la película

  • Calidad: 1080p
  • Audio: Español Latino AC3 5.1 BLURAY - Ingles AC3 5.1 BLURAY
  • Subtitulos: Español Latino SRT - Ingles SRT
  • Resolución: 1920x1038p
  • Formato: MKV
  • Codec: H.264
  • Encoder: CinefiloCool
  • Mediainfo: Clic para Mostrar Datos Ver
  • El Hombre Del Revolver De Oro (1974) 1080p Latino-CMHDD.mkv
    Format                      : Matroska
    Format version              : Version 4
    File size                   : 4.54 GiB
    Duration                    : 2 h 5 min
    Overall bit rate mode       : Variable
    Overall bit rate            : 5 185 kb/s
    Movie name                  : The Man With The Golden Gun (1974) CinemaniaHDD.Net
    Encoded date                : UTC 2020-06-02 17:16:59
    Writing application         : mkvmerge v46.0.0 ('No Deeper Escape') 64-bit
    Writing library             : libebml v1.3.10 + libmatroska v1.5.2
    Attachments                 : CINEMANIAHD.png

    Video
    ID                          : 1
    Format                      : AVC
    Format/Info                 : Advanced Video Codec
    Format profile              : High@L4
    Format settings             : CABAC / 3 Ref Frames
    Format settings, CABAC      : Yes
    Format settings, Reference  : 3 frames
    Codec ID                    : V_MPEG4/ISO/AVC
    Duration                    : 2 h 5 min
    Bit rate mode               : Variable
    Bit rate                    : 4 096 kb/s
    Width                       : 1 920 pixels
    Height                      : 1 038 pixels
    Display aspect ratio        : 1.85:1
    Frame rate mode             : Constant
    Frame rate                  : 23.976 (24000/1001) FPS
    Color space                 : YUV
    Chroma subsampling          : 4:2:0
    Bit depth                   : 8 bits
    Scan type                   : Progressive
    Bits/(Pixel*Frame)          : 0.086
    Stream size                 : 3.58 GiB (79%)
    Title                       : HD1080p [CinemaniaHDD]
    Writing library             : x264 core 142 r2479 dd79a61
    Encoding settings           : cabac=1 / ref=3 / deblock=1:0:0 / analyse=0x3:0x113 / me=hex / subme=7 / psy=1 / psy_rd=1.00:0.00 / mixed_ref=1 / me_range=16 / chroma_me=1 / trellis=1 / 8x8dct=1 / cqm=0 / deadzone=21,11 / fast_pskip=1 / chroma_qp_offset=-2 / threads=6 / lookahead_threads=1 / sliced_threads=0 / nr=0 / decimate=1 / interlaced=0 / bluray_compat=0 / constrained_intra=0 / bframes=3 / b_pyramid=0 / b_adapt=1 / b_bias=0 / direct=1 / weightb=1 / open_gop=0 / weightp=2 / keyint=240 / keyint_min=24 / scenecut=40 / intra_refresh=0 / rc_lookahead=40 / rc=2pass / mbtree=1 / bitrate=4096 / ratetol=1.0 / qcomp=0.60 / qpmin=0 / qpmax=69 / qpstep=4 / cplxblur=20.0 / qblur=0.5 / vbv_maxrate=25000 / vbv_bufsize=25000 / nal_hrd=vbr / filler=0 / ip_ratio=1.40 / aq=1:1.00
    Default                     : Yes
    Forced                      : No

    Audio #1
    ID                          : 2
    Format                      : AC-3
    Format/Info                 : Audio Coding 3
    Commercial name             : Dolby Digital
    Codec ID                    : A_AC3
    Duration                    : 2 h 5 min
    Bit rate mode               : Constant
    Bit rate                    : 448 kb/s
    Channel(s)                  : 6 channels
    Channel layout              : L R C LFE Ls Rs
    Sampling rate               : 48.0 kHz
    Frame rate                  : 31.250 FPS (1536 SPF)
    Compression mode            : Lossy
    Stream size                 : 401 MiB (9%)
    Title                       : Español Latino [CinemaniaHDD]
    Language                    : Spanish
    Service kind                : Complete Main
    Default                     : Yes
    Forced                      : No

    Audio #2
    ID                          : 3
    Format                      : AC-3
    Format/Info                 : Audio Coding 3
    Commercial name             : Dolby Digital
    Codec ID                    : A_AC3
    Duration                    : 2 h 5 min
    Bit rate mode               : Constant
    Bit rate                    : 640 kb/s
    Channel(s)                  : 6 channels
    Channel layout              : L R C LFE Ls Rs
    Sampling rate               : 48.0 kHz
    Frame rate                  : 31.250 FPS (1536 SPF)
    Compression mode            : Lossy
    Stream size                 : 573 MiB (12%)
    Title                       : Ingles [CinemaniaHDD]
    Language                    : English
    Service kind                : Complete Main
    Default                     : No
    Forced                      : No

    Text #1
    ID                          : 4
    Format                      : UTF-8
    Codec ID                    : S_TEXT/UTF8
    Codec ID/Info               : UTF-8 Plain Text
    Duration                    : 5 s 423 ms
    Bit rate                    : 44 b/s
    Count of elements           : 1
    Stream size                 : 30.0 Bytes (0%)
    Title                       : Forzados-SRT [CinemaniaHDD]
    Language                    : Spanish
    Default                     : Yes
    Forced                      : No

    Text #2
    ID                          : 5
    Format                      : UTF-8
    Codec ID                    : S_TEXT/UTF8
    Codec ID/Info               : UTF-8 Plain Text
    Duration                    : 2 h 2 min
    Bit rate                    : 40 b/s
    Count of elements           : 1062
    Stream size                 : 36.1 KiB (0%)
    Title                       : Español-SRT [CinemaniaHDD]
    Language                    : Spanish
    Default                     : No
    Forced                      : No

    Text #3
    ID                          : 6
    Format                      : UTF-8
    Codec ID                    : S_TEXT/UTF8
    Codec ID/Info               : UTF-8 Plain Text
    Duration                    : 2 h 3 min
    Bit rate                    : 39 b/s
    Count of elements           : 986
    Stream size                 : 35.3 KiB (0%)
    Title                       : Ingles-SRT [CinemaniaHDD]
    Language                    : English
    Default                     : No
    Forced                      : No

    Menu
    00:00:00.000                : en:Logo/Deadly Game
    00:08:18.081                : en:Credits/Main Title
    00:10:49.816                : en:Marked Man
    00:14:58.773                : en:Lucky Charm
    00:19:58.406                : en:Magic Bullet
    00:21:31.874                : en:Gun Master
    00:24:56.745                : en:Lady Killer
    00:28:03.140                : en:"A Water Pistol?"
    00:33:17.996                : en:Misfire
    00:36:42.575                : en:Captive
    00:39:41.129                : en:Welcome Aboard
    00:44:04.267                : en:Titillating Meeting
    00:48:27.988                : en:Hungry Go Bed
    00:51:51.608                : en:Heaven and Hell
    00:56:46.278                : en:Girl Power
    00:58:43.311                : en:Motorboat Mayhem
    01:03:23.800                : en:New Boss
    01:05:25.255                : en:This Moment
    01:07:53.486                : en:Man in the Middle
    01:14:53.197                : en:"An Eye for an Eye"
    01:19:22.800                : en:Chasing Goodnight
    01:27:17.232                : en:Metamorphosis
    01:31:06.670                : en:Goodnight's Signal
    01:33:48.164                : en:Expected Guess
    01:36:57.395                : en:Solar Power Monopoly
    01:42:02.450                : en:A Killer Lunch
    01:45:31.242                : en:Showdown
    01:48:30.212                : en:Fun Palace
    01:52:38.001                : en:Island Escape
    01:58:54.627                : en:Little Rascal
    02:01:59.729                : en:"Goodnight, Sir!"
    02:03:41.414                : en:End Credits

  • Peso: 4.54 GiB

Sinopsis

Descargar James Bond: El Hombre del Revolver de Oro (1974) 1080p Latino. El superagente británico 007 habrá de vérselas ahora con el más peligroso asesino a sueldo del momento: un hombre llamado Scaramanga, más conocido como el hombre de la pistola de oro, que tratará de deshacerse de Bond con los más sofisticados recursos. La trama tiene a Bond siendo enviado tras el Agitador Solex, un dispositivo que puede aprovechar la energía del sol, confrontando al asesino Francisco Scaramanga, «el hombre de la pistola de oro». La acción culmina en un duelo en el que se asienta el destino del Solex.

Ficha técnica

Video trailer de la película

Enlaces de descarga

Rip de Bluray

Descargar James Bond: El Hombre del Revolver de Oro (1974) 1080p Latino




Aportes de DPeliculasHDmega la pass es:dpeliculashdmega.org Aportes de CinemaniaHD la pass es:cinemaniahdd.com
Guardado en : Acción , Aventura , HD 1080p , Suspenso

Películas relacionadas

  • DC Liga De Supermascotas (2022) HD 1080p Latino

    DC Liga De Supermascotas (2022) HD 1080p Latino

    2022
    DC Liga De Supermascotas (2022) HD 1080p Latino

    1h 45m 2022

    Descargar DC Liga De Supermascotas (2022) HD 1080p Latino. Krypto el Superperro y Superman son amigos...

    Director: Sam Levine

    Género: Acción

    Actores: Yvette Nicole Brown

  • Invitacion Al Infierno (2022) MA WEB-DL 1080p Latino

    Invitacion Al Infierno (2022) MA WEB-DL 1080p Latino

    2022
    Invitacion Al Infierno (2022) MA WEB-DL 1080p Latino

    1h 45m 2022

    Descargar Invitacion Al Infierno (2022) MA WEB-DL 1080p Latino. Tras la muerte de su madre y quedarse...

    Director: Jessica M. Thompson

    Género: Suspenso

    Actores: Virág Bárány

  • Tremors (1990) REMUX 4K HDR Latino – CMHDD

    Tremors (1990) REMUX 4K HDR Latino – CMHDD

    1990
    Tremors (1990) REMUX 4K HDR Latino – CMHDD

    1h 35m 1990

    En Perfección, un pequeño pueblo al borde del desierto de Nevada, algo parece suceder debajo de la...

    Director: Susan Bierbaum

    Género: Acción

    Actores: Victor Wong

descargar James Bond: El Hombre del Revolver de Oro (1974) 1080p Latino 1080p 1080p gratis, James Bond: El Hombre del Revolver de Oro (1974) 1080p Latino 1080p mega 1 link, James Bond: El Hombre del Revolver de Oro (1974) 1080p Latino 1080p pelicula completa, descargar James Bond: El Hombre del Revolver de Oro (1974) 1080p Latino 1080p gratis en mega.

James Bond: El Hombre del Revolver de Oro (1974) 1080p Latino pelicula full hd, James Bond: El Hombre del Revolver de Oro (1974) 1080p Latino mega latino, James Bond: El Hombre del Revolver de Oro (1974) 1080p Latino 4k latino, James Bond: El Hombre del Revolver de Oro (1974) 1080p Latino pelicula completa, James Bond: El Hombre del Revolver de Oro (1974) 1080p Latino descargar gratis, descargar James Bond: El Hombre del Revolver de Oro (1974) 1080p Latino pelicula latino, James Bond: El Hombre del Revolver de Oro (1974) 1080p Latino 1 link mega, James Bond: El Hombre del Revolver de Oro (1974) 1080p Latino 1 link google drive, James Bond: El Hombre del Revolver de Oro (1974) 1080p Latino hd 1080p latino.
Comentarios 2
  • miguel - 30 enero, 2021

    algunas películas de james bond no se pueden descargar ya que el archivo no se encuentra

    • Dracarys - 30 enero, 2021

      Para VIP están todas disponibles