×

¿Problemas para descargar con Mozilla, EDGE? Deshabilita la opción "Abrir vinculos en una pestaña nueva" tal como lo muestra ésta imagen.

James Bond: El Hombre del Revolver de Oro (1974) Full HD 1080p Latino

893 vistas

Información de James Bond: El Hombre del Revolver de Oro (1974) Full HD 1080p Latino

Datos de la película

  • Calidad: Full 1080p
  • Audio: Español Latino AC3 5.1 BLURAY - Ingles DTS 5.1 BLURAY
  • Subtitulos: Español Latino PGS - Ingles PGS
  • Resolución: 1920x1080p
  • Formato: MKV
  • Codec: H.264
  • Encoder: Dracarys
  • Mediainfo: Clic para Mostrar Datos Ver
  • El Hombre Del Revolver De Oro (1974) Full HD 1080p Latino-CMHDD.mkv
    Format                      : Matroska
    Format version              : Version 4
    File size                   : 9.79 GiB
    Duration                    : 2 h 5 min
    Overall bit rate            : 11.2 Mb/s
    Movie name                  : The Man With The Golden Gun (1974) CinemaniaHDD.Net
    Encoded date                : UTC 2020-06-02 15:43:25
    Writing application         : mkvmerge v46.0.0 ('No Deeper Escape') 64-bit
    Writing library             : libebml v1.3.10 + libmatroska v1.5.2
    Attachments                 : CINEMANIAHD.png

    Video
    ID                          : 1
    Format                      : AVC
    Format/Info                 : Advanced Video Codec
    Format profile              : High@L4.1
    Format settings             : CABAC / 4 Ref Frames
    Format settings, CABAC      : Yes
    Format settings, Reference  : 4 frames
    Codec ID                    : V_MPEG4/ISO/AVC
    Duration                    : 2 h 5 min
    Bit rate                    : 9 211 kb/s
    Width                       : 1 920 pixels
    Height                      : 1 080 pixels
    Display aspect ratio        : 16:9
    Frame rate mode             : Constant
    Frame rate                  : 23.976 (24000/1001) FPS
    Color space                 : YUV
    Chroma subsampling          : 4:2:0
    Bit depth                   : 8 bits
    Scan type                   : Progressive
    Bits/(Pixel*Frame)          : 0.185
    Stream size                 : 8.06 GiB (82%)
    Title                       : Full HD1080p [CinemaniaHDD]
    Writing library             : x264 core 148 r2708 86b7198
    Encoding settings           : cabac=1 / ref=4 / deblock=1:0:0 / analyse=0x3:0x133 / me=esa / subme=10 / psy=1 / psy_rd=1.00:0.00 / mixed_ref=1 / me_range=24 / chroma_me=1 / trellis=2 / 8x8dct=1 / cqm=0 / deadzone=21,11 / fast_pskip=1 / chroma_qp_offset=-2 / threads=34 / lookahead_threads=5 / sliced_threads=0 / nr=0 / decimate=1 / interlaced=0 / bluray_compat=0 / constrained_intra=0 / bframes=8 / b_pyramid=2 / b_adapt=2 / b_bias=0 / direct=3 / weightb=1 / open_gop=0 / weightp=2 / keyint=240 / keyint_min=24 / scenecut=40 / intra_refresh=0 / rc_lookahead=60 / rc=crf / mbtree=1 / crf=20.0 / qcomp=0.60 / qpmin=0 / qpmax=69 / qpstep=4 / vbv_maxrate=62500 / vbv_bufsize=78125 / crf_max=0.0 / nal_hrd=none / filler=0 / ip_ratio=1.40 / aq=1:1.00
    Language                    : English
    Default                     : Yes
    Forced                      : No
    Color range                 : Limited
    Color primaries             : BT.709
    Transfer characteristics    : BT.709
    Matrix coefficients         : BT.709

    Audio #1
    ID                          : 2
    Format                      : AC-3
    Format/Info                 : Audio Coding 3
    Commercial name             : Dolby Digital
    Codec ID                    : A_AC3
    Duration                    : 2 h 5 min
    Bit rate mode               : Constant
    Bit rate                    : 448 kb/s
    Channel(s)                  : 6 channels
    Channel layout              : L R C LFE Ls Rs
    Sampling rate               : 48.0 kHz
    Frame rate                  : 31.250 FPS (1536 SPF)
    Compression mode            : Lossy
    Delay relative to video     : -21 ms
    Stream size                 : 401 MiB (4%)
    Title                       : Español Latino [CinemaniaHDD]
    Language                    : Spanish
    Service kind                : Complete Main
    Default                     : Yes
    Forced                      : No

    Audio #2
    ID                          : 3
    Format                      : DTS
    Format/Info                 : Digital Theater Systems
    Codec ID                    : A_DTS
    Duration                    : 2 h 5 min
    Bit rate mode               : Constant
    Bit rate                    : 1 509 kb/s
    Channel(s)                  : 6 channels
    Channel layout              : C L R Ls Rs LFE
    Sampling rate               : 48.0 kHz
    Frame rate                  : 93.750 FPS (512 SPF)
    Bit depth                   : 24 bits
    Compression mode            : Lossy
    Delay relative to video     : -21 ms
    Stream size                 : 1.32 GiB (13%)
    Title                       : Ingles [CinemaniaHDD]
    Language                    : English
    Default                     : No
    Forced                      : No

    Text #1
    ID                          : 4
    Format                      : PGS
    Muxing mode                 : zlib
    Codec ID                    : S_HDMV/PGS
    Codec ID/Info               : Picture based subtitle format used on BDs/HD-DVDs
    Duration                    : 2 h 2 min
    Bit rate                    : 32.7 kb/s
    Count of elements           : 2124
    Stream size                 : 28.6 MiB (0%)
    Title                       : Español-PGS [CinemaniaHDD]
    Language                    : Spanish
    Default                     : No
    Forced                      : No

    Text #2
    ID                          : 5
    Format                      : PGS
    Muxing mode                 : zlib
    Codec ID                    : S_HDMV/PGS
    Codec ID/Info               : Picture based subtitle format used on BDs/HD-DVDs
    Duration                    : 2 h 3 min
    Bit rate                    : 30.1 kb/s
    Count of elements           : 2754
    Stream size                 : 26.5 MiB (0%)
    Title                       : Ingles-PGS [CinemaniaHDD]
    Language                    : English
    Default                     : No
    Forced                      : No

    Text #3
    ID                          : 6
    Format                      : UTF-8
    Codec ID                    : S_TEXT/UTF8
    Codec ID/Info               : UTF-8 Plain Text
    Duration                    : 5 s 423 ms
    Bit rate                    : 44 b/s
    Count of elements           : 1
    Stream size                 : 30.0 Bytes (0%)
    Title                       : Forzados-SRT [CinemaniaHDD]
    Language                    : Spanish
    Default                     : Yes
    Forced                      : No

    Text #4
    ID                          : 7
    Format                      : UTF-8
    Codec ID                    : S_TEXT/UTF8
    Codec ID/Info               : UTF-8 Plain Text
    Duration                    : 2 h 2 min
    Bit rate                    : 40 b/s
    Count of elements           : 1062
    Stream size                 : 36.1 KiB (0%)
    Title                       : Español-SRT [CinemaniaHDD]
    Language                    : Spanish
    Default                     : No
    Forced                      : No

    Menu
    00:00:00.000                : :Chapter 1
    00:08:18.081                : :Chapter 2
    00:10:49.816                : :Chapter 3
    00:14:58.773                : :Chapter 4
    00:19:58.406                : :Chapter 5
    00:21:31.874                : :Chapter 6
    00:24:56.745                : :Chapter 7
    00:28:03.140                : :Chapter 8
    00:33:17.996                : :Chapter 9
    00:36:42.575                : :Chapter 10
    00:39:41.129                : :Chapter 11
    00:44:04.267                : :Chapter 12
    00:48:27.988                : :Chapter 13
    00:51:51.609                : :Chapter 14
    00:56:46.278                : :Chapter 15
    00:58:43.311                : :Chapter 16
    01:03:23.800                : :Chapter 17
    01:05:25.255                : :Chapter 18
    01:07:53.486                : :Chapter 19
    01:14:53.197                : :Chapter 20
    01:19:22.800                : :Chapter 21
    01:27:17.232                : :Chapter 22
    01:31:06.670                : :Chapter 23
    01:33:48.164                : :Chapter 24
    01:36:57.395                : :Chapter 25
    01:42:02.450                : :Chapter 26
    01:45:31.242                : :Chapter 27
    01:48:30.212                : :Chapter 28
    01:52:38.001                : :Chapter 29
    01:58:54.628                : :Chapter 30
    02:01:59.729                : :Chapter 31
    02:03:41.414                : :Chapter 32

  • Peso: 9.79 GiB

Sinopsis

Descargar James Bond: El Hombre del Revolver de Oro (1974) Full HD 1080p Latino. El superagente británico 007 habrá de vérselas ahora con el más peligroso asesino a sueldo del momento: un hombre llamado Scaramanga, más conocido como el hombre de la pistola de oro, que tratará de deshacerse de Bond con los más sofisticados recursos. La trama tiene a Bond siendo enviado tras el Agitador Solex, un dispositivo que puede aprovechar la energía del sol, confrontando al asesino Francisco Scaramanga, «el hombre de la pistola de oro». La acción culmina en un duelo en el que se asienta el destino del Solex.

RESUBIDO!

Ficha técnica

Video trailer de la película

Enlaces de descarga

Rip de Bluray

Descargar James Bond: El Hombre del Revolver de Oro (1974) Full HD 1080p Latino




Aportes de DPeliculasHDmega la pass es:dpeliculashdmega.org Aportes de CinemaniaHD la pass es:cinemaniahdd.com

Películas relacionadas

  • Wire Room (2022) HD 1080p Latino

    Wire Room (2022) HD 1080p Latino

    2022
    Wire Room (2022) HD 1080p Latino

    1h 37m 2022

    Descargar Wire Room (2022) HD 1080p Latino. Mientras está de servicio en la sala de cables, un agente...

    Director: Matt Eskandari

    Género: Acción

    Actores: Texas Battle

  • Wire Room (2022) PLACEBO Full HD 1080p Latino

    Wire Room (2022) PLACEBO Full HD 1080p Latino

    2022
    Wire Room (2022) PLACEBO Full HD 1080p Latino

    1h 37m 2022

    Descargar Wire Room (2022) PLACEBO Full HD 1080p Latino. Mientras está de servicio en la sala de cables,...

    Director: Matt Eskandari

    Género: Acción

    Actores: Texas Battle

  • Wire Room (2022) REMUX 1080p Latino

    Wire Room (2022) REMUX 1080p Latino

    2022
    Wire Room (2022) REMUX 1080p Latino

    1h 37m 2022

    Descargar Wire Room (2022) REMUX 1080p Latino. Mientras está de servicio en la sala de cables, un agente...

    Director: Matt Eskandari

    Género: Acción

    Actores: Texas Battle

  • Alarido (2022) HD 1080p Latino

    Alarido (2022) HD 1080p Latino

    2022
    Alarido (2022) HD 1080p Latino

    1h 29m 2022

    Descargar Alarido (2022) HD 1080p Latino. Una joven madre soltera es cautiva junto con sus dos hijos...

    Director: D.J. Caruso

    Género: HD 1080p

    Actores: Vincent Gallo

  • Alarido (2022) PLACEBO Full HD 1080p Latino

    Alarido (2022) PLACEBO Full HD 1080p Latino

    2022
    Alarido (2022) PLACEBO Full HD 1080p Latino

    1h 29m 2022

    Descargar Alarido (2022) PLACEBO Full HD 1080p Latino. Una joven madre soltera es cautiva junto con sus...

    Director: D.J. Caruso

    Género: FULL 1080p Plateadas

    Actores: Vincent Gallo

descargar James Bond: El Hombre del Revolver de Oro (1974) Full HD 1080p Latino Full 1080p 1080p gratis, James Bond: El Hombre del Revolver de Oro (1974) Full HD 1080p Latino Full 1080p mega 1 link, James Bond: El Hombre del Revolver de Oro (1974) Full HD 1080p Latino Full 1080p pelicula completa, descargar James Bond: El Hombre del Revolver de Oro (1974) Full HD 1080p Latino Full 1080p gratis en mega.

James Bond: El Hombre del Revolver de Oro (1974) Full HD 1080p Latino pelicula full hd, James Bond: El Hombre del Revolver de Oro (1974) Full HD 1080p Latino mega latino, James Bond: El Hombre del Revolver de Oro (1974) Full HD 1080p Latino 4k latino, James Bond: El Hombre del Revolver de Oro (1974) Full HD 1080p Latino pelicula completa, James Bond: El Hombre del Revolver de Oro (1974) Full HD 1080p Latino descargar gratis, descargar James Bond: El Hombre del Revolver de Oro (1974) Full HD 1080p Latino pelicula latino, James Bond: El Hombre del Revolver de Oro (1974) Full HD 1080p Latino 1 link mega, James Bond: El Hombre del Revolver de Oro (1974) Full HD 1080p Latino 1 link google drive, James Bond: El Hombre del Revolver de Oro (1974) Full HD 1080p Latino hd 1080p latino.
Comentarios 1
  • ocpgaiden - 20 julio, 2018

    Gracias por la pelicula, saludos