×

¿Problemas para descargar con Mozilla, EDGE? Deshabilita la opción "Abrir vinculos en una pestaña nueva" tal como lo muestra ésta imagen.

The Man Who Fell to Earth (2022) Primera Temporada AMZN WEB-DL 1080p Latino

715 vistas

Información de The Man Who Fell to Earth (2022) Primera Temporada AMZN WEB-DL 1080p Latino

Datos de la película

  • Calidad: 1080p
  • Audio: Español Latino AC3 2.0 WEB-DL - Ingles AC3 5.1 WEB-DL
  • Subtitulos: Español Latino SRT- FORZADOS SRT
  • Resolución: 1920x1080
  • Formato: MKV
  • Codec: H.264
  • Encoder: cinemaniahdd
  • Mediainfo: Clic para Mostrar Datos Ver
  • The Man Who Fell to Earth T01E01 AMZN WEB-DL 1080p Latino [CNMNHDD].mkv
    Format                      : Matroska
    Format version              : Version 4
    File size                   : 2.96 GiB
    Duration                    : 54 min 44 s
    Overall bit rate            : 7 730 kb/s
    Movie name                  : The Man Who Fell to Earth S01E01 - Hallo Spaceboy [1080p] - CinemaniaHDD.Net
    Encoded date                : UTC 2022-07-04 23:41:32
    Writing application         : mkvmerge v56.1.0 ('My Friend') 64-bit
    Writing library             : libebml v1.4.2 + libmatroska v1.6.4

    Video
    ID                          : 1
    Format                      : AVC
    Format/Info                 : Advanced Video Codec
    Format profile              : High@L4
    Format settings             : CABAC / 4 Ref Frames
    Format settings, CABAC      : Yes
    Format settings, Reference  : 4 frames
    Codec ID                    : V_MPEG4/ISO/AVC
    Duration                    : 54 min 44 s
    Bit rate mode               : Constant
    Bit rate                    : 6 964 kb/s
    Nominal bit rate            : 10 000 kb/s
    Width                       : 1 920 pixels
    Height                      : 1 080 pixels
    Display aspect ratio        : 16:9
    Frame rate mode             : Constant
    Frame rate                  : 23.976 (24000/1001) FPS
    Color space                 : YUV
    Chroma subsampling          : 4:2:0
    Bit depth                   : 8 bits
    Scan type                   : Progressive
    Bits/(Pixel*Frame)          : 0.140
    Stream size                 : 2.66 GiB (90%)
    Title                       : CinemaniaHDD
    Default                     : Yes
    Forced                      : No
    Color range                 : Limited
    Color primaries             : BT.709
    Transfer characteristics    : BT.709
    Matrix coefficients         : BT.709

    Audio #1
    ID                          : 2
    Format                      : AAC LC
    Format/Info                 : Advanced Audio Codec Low Complexity
    Codec ID                    : A_AAC-2
    Duration                    : 54 min 28 s
    Bit rate                    : 124 kb/s
    Channel(s)                  : 2 channels
    Channel layout              : L R
    Sampling rate               : 48.0 kHz
    Frame rate                  : 46.875 FPS (1024 SPF)
    Compression mode            : Lossy
    Stream size                 : 48.3 MiB (2%)
    Title                       : Español latino [CinemaniaHDD]
    Language                    : Spanish
    Default                     : Yes
    Forced                      : No

    Audio #2
    ID                          : 3
    Format                      : E-AC-3
    Format/Info                 : Enhanced AC-3
    Commercial name             : Dolby Digital Plus
    Codec ID                    : A_EAC3
    Duration                    : 54 min 44 s
    Bit rate mode               : Constant
    Bit rate                    : 640 kb/s
    Channel(s)                  : 6 channels
    Channel layout              : L R C LFE Ls Rs
    Sampling rate               : 48.0 kHz
    Frame rate                  : 31.250 FPS (1536 SPF)
    Compression mode            : Lossy
    Delay relative to video     : 18 ms
    Stream size                 : 251 MiB (8%)
    Title                       : Inglés [CinemaniaHDD]
    Language                    : English
    Service kind                : Complete Main
    Default                     : No
    Forced                      : No

    Text #1
    ID                          : 4
    Format                      : UTF-8
    Codec ID                    : S_TEXT/UTF8
    Codec ID/Info               : UTF-8 Plain Text
    Duration                    : 52 min 27 s
    Bit rate                    : 44 b/s
    Count of elements           : 621
    Stream size                 : 17.0 KiB (0%)
    Title                       : Español latino [CinemaniaHDD]
    Language                    : Spanish
    Default                     : No
    Forced                      : No

    Text #2
    ID                          : 5
    Format                      : UTF-8
    Codec ID                    : S_TEXT/UTF8
    Codec ID/Info               : UTF-8 Plain Text
    Duration                    : 52 min 21 s
    Bit rate                    : 102 b/s
    Count of elements           : 902
    Stream size                 : 39.4 KiB (0%)
    Title                       : Inglés [CinemaniaHDD]
    Language                    : English
    Default                     : No
    Forced                      : No

     

     

  • Peso: 2.96 GiB Aprox ---- 28 GiB in 10 Chapters.

Sinopsis

Un extraterrestre llega a la Tierra en un punto de inflexión en la evolución humana y debe enfrentarse a su propio pasado para determinar nuestro futuro.

Ficha técnica

Video trailer de la película

Enlaces de descarga

Rip de Bluray

Descargar The Man Who Fell to Earth (2022) Primera Temporada AMZN WEB-DL 1080p Latino




Aportes de DPeliculasHDmega la pass es:dpeliculashdmega.org Aportes de CinemaniaHD la pass es:cinemaniahdd.com
Guardado en : Drama , Series

Películas relacionadas

descargar The Man Who Fell to Earth (2022) Primera Temporada AMZN WEB-DL 1080p Latino 1080p 1080p gratis, The Man Who Fell to Earth (2022) Primera Temporada AMZN WEB-DL 1080p Latino 1080p mega 1 link, The Man Who Fell to Earth (2022) Primera Temporada AMZN WEB-DL 1080p Latino 1080p serie completa, descargar The Man Who Fell to Earth (2022) Primera Temporada AMZN WEB-DL 1080p Latino 1080p gratis en mega.

The Man Who Fell to Earth (2022) Primera Temporada AMZN WEB-DL 1080p Latino pelicula full hd, The Man Who Fell to Earth (2022) Primera Temporada AMZN WEB-DL 1080p Latino mega latino, The Man Who Fell to Earth (2022) Primera Temporada AMZN WEB-DL 1080p Latino 4k latino, The Man Who Fell to Earth (2022) Primera Temporada AMZN WEB-DL 1080p Latino pelicula completa, The Man Who Fell to Earth (2022) Primera Temporada AMZN WEB-DL 1080p Latino descargar gratis, descargar The Man Who Fell to Earth (2022) Primera Temporada AMZN WEB-DL 1080p Latino pelicula latino, The Man Who Fell to Earth (2022) Primera Temporada AMZN WEB-DL 1080p Latino 1 link mega, The Man Who Fell to Earth (2022) Primera Temporada AMZN WEB-DL 1080p Latino 1 link google drive, The Man Who Fell to Earth (2022) Primera Temporada AMZN WEB-DL 1080p Latino hd 1080p latino.
Comentarios 0