The Man in the High Castle (2018) Tercera Temporada [AMZN] WEB-DL 1080p Latino

737 vistas
1 estrella2 estrellas3 estrellas4 estrellas5 estrellas (2 votos, promedio: 5,00 de 5)
Cargando…

Información de The Man in the High Castle (2018) Tercera Temporada [AMZN] WEB-DL 1080p Latino

Datos de la película

  • Calidad: WEBDL
  • Audio: Se especifica abajo de la Sinopsis
  • Subtitulos: Español Latino SRT- FORZADOS SRT
  • Resolución: 1920x1080p
  • Formato: MKV
  • Codec: H.264
  • Encoder: Dracarys
  • Mediainfo: Clic para Mostrar Datos Ver
  • Format                                   : Matroska
    Format version                           : Version 4 / Version 2
    File size                                : 3.42 GiB
    Duration                                 : 1 h 10 min
    Overall bit rate mode                    : Variable
    Overall bit rate                         : 6 983 kb/s
    Movie name                               : CinemaniaHDD.net
    Encoded date                             : UTC 2018-10-16 19:19:28
    Writing application                      : mkvmerge v15.0.0 ('Duel with the Devil') 64-bit
    Writing library                          : libebml v1.3.5 + libmatroska v1.4.5

    Video
    ID                                       : 1
    Format                                   : AVC
    Format/Info                              : Advanced Video Codec
    Format profile                           : High@L4
    Format settings                          : CABAC / 4 Ref Frames
    Format settings, CABAC                   : Yes
    Format settings, RefFrames               : 4 frames
    Codec ID                                 : V_MPEG4/ISO/AVC
    Duration                                 : 1 h 10 min
    Bit rate mode                            : Variable
    Bit rate                                 : 5 700 kb/s
    Maximum bit rate                         : 15.0 Mb/s
    Width                                    : 1 920 pixels
    Height                                   : 1 080 pixels
    Display aspect ratio                     : 16:9
    Frame rate mode                          : Constant
    Frame rate                               : 23.976 (24000/1001) FPS
    Color space                              : YUV
    Chroma subsampling                       : 4:2:0
    Bit depth                                : 8 bits
    Scan type                                : Progressive
    Bits/(Pixel*Frame)                       : 0.115
    Stream size                              : 2.79 GiB (82%)
    Language                                 : English
    Default                                  : Yes
    Forced                                   : No
    Color range                              : Limited
    Color primaries                          : BT.709
    Transfer characteristics                 : BT.709
    Matrix coefficients                      : BT.709

    Audio #1
    ID                                       : 2
    Format                                   : E-AC-3
    Format/Info                              : Enhanced Audio Coding 3
    Format settings, Endianness              : Big
    Codec ID                                 : A_EAC3
    Duration                                 : 1 h 10 min
    Bit rate mode                            : Constant
    Bit rate                                 : 640 kb/s
    Channel(s)                               : 6 channels
    Channel positions                        : Front: L C R, Side: L R, LFE
    Sampling rate                            : 48.0 kHz
    Frame rate                               : 187.500 FPS (256 SPF)
    Compression mode                         : Lossy
    Stream size                              : 321 MiB (9%)
    Language                                 : Spanish
    Service kind                             : Complete Main
    Default                                  : Yes
    Forced                                   : No

    Audio #2
    ID                                       : 3
    Format                                   : E-AC-3
    Format/Info                              : Enhanced Audio Coding 3
    Format settings, Endianness              : Big
    Codec ID                                 : A_EAC3
    Duration                                 : 1 h 10 min
    Bit rate mode                            : Constant
    Bit rate                                 : 640 kb/s
    Channel(s)                               : 6 channels
    Channel positions                        : Front: L C R, Side: L R, LFE
    Sampling rate                            : 48.0 kHz
    Frame rate                               : 187.500 FPS (256 SPF)
    Compression mode                         : Lossy
    Stream size                              : 321 MiB (9%)
    Language                                 : English
    Service kind                             : Complete Main
    Default                                  : No
    Forced                                   : No

    Text #1
    ID                                       : 4
    Format                                   : UTF-8
    Codec ID                                 : S_TEXT/UTF8
    Codec ID/Info                            : UTF-8 Plain Text
    Duration                                 : 1 h 7 min
    Bit rate                                 : 54 b/s
    Count of elements                        : 1034
    Stream size                              : 27.0 KiB (0%)
    Language                                 : English
    Default                                  : No
    Forced                                   : No

    Text #2
    ID                                       : 5
    Format                                   : UTF-8
    Codec ID                                 : S_TEXT/UTF8
    Codec ID/Info                            : UTF-8 Plain Text
    Duration                                 : 1 h 3 min
    Bit rate                                 : 1 b/s
    Count of elements                        : 30
    Stream size                              : 902 Bytes (0%)
    Title                                    : Forzados
    Language                                 : Spanish
    Default                                  : Yes
    Forced                                   : Yes

    Text #3
    ID                                       : 6
    Format                                   : UTF-8
    Codec ID                                 : S_TEXT/UTF8
    Codec ID/Info                            : UTF-8 Plain Text
    Duration                                 : 1 h 7 min
    Bit rate                                 : 43 b/s
    Count of elements                        : 688
    Stream size                              : 21.5 KiB (0%)
    Language                                 : Spanish
    Default                                  : No
    Forced                                   : No

    Menu
    00:00:00.000                             : en:Amazon Original
    00:00:05.000                             : en:Previously On
    00:04:08.000                             : en:The Resistance persists
    00:05:48.000                             : en:Opening Credits
    00:07:17.000                             : en:The Nazi's try to extract information
    00:08:21.000                             : en:The Japanese test their new weapon
    00:10:46.000                             : en:Juliana needs help finding an address
    00:13:06.000                             : en:Trudy is getting anxious
    00:14:02.000                             : en:Obergruppenführer returns home
    00:15:07.000                             : en:Juliana checks on Trudy
    00:17:21.000                             : en:Helen is still mourning over Thomas
    00:19:14.000                             : en:Joe does what he must to have a heart of steel
    00:24:19.000                             : en:Hawthorne has a revelation
    00:27:54.000                             : en:Juliana realizes they're no longer safe
    00:31:51.000                             : en:Inspector Kido hires a new Sergeant
    00:35:12.000                             : en:Joe returns home to the US
    00:37:09.000                             : en:Billy Turner gets a new staff member to head up propaganda
    00:39:32.000                             : en:Juliana gets to know Wyatt
    00:47:05.000                             : en:Juliana and Trudy flee
    00:48:15.000                             : en:Nicole and Joe reunite
    00:52:20.000                             : en:The Smith family copes with losing Thomas
    00:55:20.000                             : en:The Smith's celebrate the life and sacrifice of Thomas
    00:59:29.000                             : en:The Nazi Party honors Thomas' sacrifice
    01:04:10.000                             : en:Tagomi gets an unexpected visitor
    01:05:47.000                             : en:Raeder delivers Joe's new credentials
    01:07:48.000                             : en:End Credits

     

  • Peso: 2.50 GiB X Capitulo

Sinopsis

La serie está basada en la novela homónima de Philip K. Dick, pero no se dejen confundir por sus afiches, porque a simple vista puede parecer estar desarrollada durante el mandato del Tercer Reich —y lo está— pero se trata de una realidad alternativa de lo que realmente sucedió al final de la Segunda Guerra Mundial, así que si lo que buscan es alimentarse de contenido histórico (verídico), pues esta no es la serie que buscan. The Man in the High Castle es la perfecta definición de ucronía, descrita como una reconstrucción histórica basada en hechos que realmente nunca sucedieron. Ambientada en los años 60s en una realidad donde la WWII la ganó la Alemania Nazi en conjunto con el Imperio Japonés, mientras los Estados Unidos de América se ven invadidos por estos dos países. Norteamérica se encuentra entonces repartida entre Japón y Alemania, dividida en Costa Este, Costa Oeste, y las fronteras que dividen a estas dos costas es el único espacio designado para la Zona Neutral.

 

Latino: E-AC3 5.1  –  Ingles: E-AC3 5.1

Creditos Audio Latino: Electr0man

Ficha técnica

Video trailer de la película

Enlaces de descarga

Rip de Bluray

Descargar The Man in the High Castle (2018) Tercera Temporada [AMZN] WEB-DL 1080p Latino




Aportes de DPeliculasHDmega la pass es:dpeliculashdmega.org Aportes de CinemaniaHD la pass es:cinemaniahdd.com
Guardado en : Drama , Sci-Fi & Fantasy , Series

Películas relacionadas

Comentarios 0