×

¿Problemas para descargar con Mozilla, EDGE? Deshabilita la opción "Abrir vinculos en una pestaña nueva" tal como lo muestra ésta imagen.

The Man in the High Castle (2016) Segunda Temporada [AMZN] WEB-DL 1080p Latino

1.874 vistas

Información de The Man in the High Castle (2016) Segunda Temporada [AMZN] WEB-DL 1080p Latino

Datos de la película

  • Calidad: WEBDL
  • Audio: Español Latino E-AC3 5.1 AMAZON - Ingles E-AC3 5.1 AMAZON
  • Subtitulos: Español Latino SRT- FORZADOS SRT
  • Resolución: 1920x1080p
  • Formato: MKV
  • Codec: H.264
  • Encoder: Dracarys
  • Mediainfo: Clic para Mostrar Datos Ver
  • Format                                   : Matroska
    Format version                           : Version 4 / Version 2
    File size                                : 4.85 GiB
    Duration                                 : 57 min 4 s
    Overall bit rate                         : 12.2 Mb/s
    Movie name                               : CinemaniaHDD.net
    Encoded date                             : UTC 2018-10-16 18:52:44
    Writing application                      : mkvmerge v15.0.0 ('Duel with the Devil') 64-bit
    Writing library                          : libebml v1.3.5 + libmatroska v1.4.5

    Video
    ID                                       : 1
    Format                                   : AVC
    Format/Info                              : Advanced Video Codec
    Format profile                           : High@L4.1
    Format settings                          : CABAC / 4 Ref Frames
    Format settings, CABAC                   : Yes
    Format settings, RefFrames               : 4 frames
    Codec ID                                 : V_MPEG4/ISO/AVC
    Duration                                 : 57 min 4 s
    Bit rate                                 : 10.9 Mb/s
    Width                                    : 1 920 pixels
    Height                                   : 1 080 pixels
    Display aspect ratio                     : 16:9
    Frame rate mode                          : Constant
    Frame rate                               : 23.976 (24000/1001) FPS
    Color space                              : YUV
    Chroma subsampling                       : 4:2:0
    Bit depth                                : 8 bits
    Scan type                                : Progressive
    Bits/(Pixel*Frame)                       : 0.219
    Stream size                              : 4.33 GiB (89%)
    Writing library                          : x264 core 148 r2744+8 b97ae06 / tmod bb0ae40 X86_64
    Encoding settings                        : cabac=1 / ref=4 / deblock=1:-3:-3 / analyse=0x3:0x133 / me=umh / subme=11 / psy=1 / fade_compensate=0.00 / psy_rd=1.15:0.05 / mixed_ref=1 / me_range=48 / chroma_me=1 / trellis=2 / 8x8dct=1 / cqm=0 / deadzone=6,6 / fast_pskip=0 / chroma_qp_offset=-3 / threads=30 / lookahead_threads=7 / sliced_threads=0 / nr=0 / decimate=0 / interlaced=0 / bluray_compat=0 / constrained_intra=0 / fgo=0 / bframes=10 / b_pyramid=2 / b_adapt=2 / b_bias=0 / direct=3 / weightb=1 / open_gop=0 / weightp=2 / keyint=250 / keyint_min=23 / scenecut=40 / intra_refresh=0 / rc=crf / mbtree=0 / crf=17.0000 / qcomp=0.70 / qpmin=0:0:0 / qpmax=69:69:69 / qpstep=4 / ip_ratio=1.10 / pb_ratio=1.10 / aq=3:0.70 / aq-sensitivity=10.00 / aq-factor=1.00:1.00:1.00 / aq2=0 / aq3=0
    Language                                 : English
    Default                                  : Yes
    Forced                                   : No

    Audio #1
    ID                                       : 2
    Format                                   : E-AC-3
    Format/Info                              : Enhanced Audio Coding 3
    Format settings, Endianness              : Big
    Codec ID                                 : A_EAC3
    Duration                                 : 57 min 3 s
    Bit rate mode                            : Constant
    Bit rate                                 : 640 kb/s
    Channel(s)                               : 6 channels
    Channel positions                        : Front: L C R, Side: L R, LFE
    Sampling rate                            : 48.0 kHz
    Frame rate                               : 187.500 FPS (256 SPF)
    Compression mode                         : Lossy
    Stream size                              : 261 MiB (5%)
    Language                                 : Spanish
    Service kind                             : Complete Main
    Default                                  : Yes
    Forced                                   : No

    Audio #2
    ID                                       : 3
    Format                                   : E-AC-3
    Format/Info                              : Enhanced Audio Coding 3
    Format settings, Endianness              : Big
    Codec ID                                 : A_EAC3
    Duration                                 : 57 min 4 s
    Bit rate mode                            : Constant
    Bit rate                                 : 640 kb/s
    Channel(s)                               : 6 channels
    Channel positions                        : Front: L C R, Side: L R, LFE
    Sampling rate                            : 48.0 kHz
    Frame rate                               : 187.500 FPS (256 SPF)
    Compression mode                         : Lossy
    Stream size                              : 261 MiB (5%)
    Language                                 : English
    Service kind                             : Complete Main
    Default                                  : No
    Forced                                   : No

    Text #1
    ID                                       : 4
    Format                                   : UTF-8
    Codec ID                                 : S_TEXT/UTF8
    Codec ID/Info                            : UTF-8 Plain Text
    Duration                                 : 53 min 27 s
    Bit rate                                 : 42 b/s
    Count of elements                        : 637
    Stream size                              : 16.8 KiB (0%)
    Title                                    : English
    Language                                 : English
    Default                                  : No
    Forced                                   : No

    Text #2
    ID                                       : 5
    Format                                   : UTF-8
    Codec ID                                 : S_TEXT/UTF8
    Codec ID/Info                            : UTF-8 Plain Text
    Duration                                 : 41 min 25 s
    Bit rate                                 : 2 b/s
    Count of elements                        : 24
    Stream size                              : 685 Bytes (0%)
    Title                                    : Forzados
    Language                                 : Spanish
    Default                                  : Yes
    Forced                                   : Yes

    Text #3
    ID                                       : 6
    Format                                   : UTF-8
    Codec ID                                 : S_TEXT/UTF8
    Codec ID/Info                            : UTF-8 Plain Text
    Duration                                 : 53 min 33 s
    Bit rate                                 : 43 b/s
    Count of elements                        : 543
    Stream size                              : 17.2 KiB (0%)
    Language                                 : Spanish
    Default                                  : No
    Forced                                   : No

     

  • Peso: 5.00 GiB X Capitulo

Sinopsis

La serie está basada en la novela homónima de Philip K. Dick, pero no se dejen confundir por sus afiches, porque a simple vista puede parecer estar desarrollada durante el mandato del Tercer Reich —y lo está— pero se trata de una realidad alternativa de lo que realmente sucedió al final de la Segunda Guerra Mundial, así que si lo que buscan es alimentarse de contenido histórico (verídico), pues esta no es la serie que buscan. The Man in the High Castle es la perfecta definición de ucronía, descrita como una reconstrucción histórica basada en hechos que realmente nunca sucedieron. Ambientada en los años 60s en una realidad donde la WWII la ganó la Alemania Nazi en conjunto con el Imperio Japonés, mientras los Estados Unidos de América se ven invadidos por estos dos países. Norteamérica se encuentra entonces repartida entre Japón y Alemania, dividida en Costa Este, Costa Oeste, y las fronteras que dividen a estas dos costas es el único espacio designado para la Zona Neutral.

 

Resubido 😉

Ficha técnica

Video trailer de la película

Enlaces de descarga

Rip de Bluray

Descargar The Man in the High Castle (2016) Segunda Temporada [AMZN] WEB-DL 1080p Latino




Aportes de DPeliculasHDmega la pass es:dpeliculashdmega.org Aportes de CinemaniaHD la pass es:cinemaniahdd.com
Guardado en : Drama , Sci-Fi & Fantasy , Series

Películas relacionadas

  • Paradise Highway (2022) HD 1080p Latino

    Paradise Highway (2022) HD 1080p Latino

    2022
    Paradise Highway (2022) HD 1080p Latino

    1h 55m 2022

    Descargar Paradise Highway (2022) HD 1080p Latino. Un camionero se ha visto obligado a pasar de contrabando...

    Director: Anna Gutto

    Género: Crimen

    Actores: Xavier Scott Evans

  • Paradise Highway (2022) PLACEBO Full HD 1080p Latino

    Paradise Highway (2022) PLACEBO Full HD 1080p Latino

    2022
    Paradise Highway (2022) PLACEBO Full HD 1080p Latino

    1h 55m 2022

    Descargar Paradise Highway (2022) PLACEBO Full HD 1080p Latino. Un camionero se ha visto obligado a pasar...

    Director: Anna Gutto

    Género: Crimen

    Actores: Xavier Scott Evans

  • Paradise Highway (2022) REMUX 1080p Latino

    Paradise Highway (2022) REMUX 1080p Latino

    2022
    Paradise Highway (2022) REMUX 1080p Latino

    1h 55m 2022

    Descargar Paradise Highway (2022) REMUX 1080p Latino. Un camionero se ha visto obligado a pasar de contrabando...

    Director: Anna Gutto

    Género: Crimen

    Actores: Xavier Scott Evans

descargar The Man in the High Castle (2016) Segunda Temporada [AMZN] WEB-DL 1080p Latino WEBDL 1080p gratis, The Man in the High Castle (2016) Segunda Temporada [AMZN] WEB-DL 1080p Latino WEBDL mega 1 link, The Man in the High Castle (2016) Segunda Temporada [AMZN] WEB-DL 1080p Latino WEBDL serie completa, descargar The Man in the High Castle (2016) Segunda Temporada [AMZN] WEB-DL 1080p Latino WEBDL gratis en mega.

The Man in the High Castle (2016) Segunda Temporada [AMZN] WEB-DL 1080p Latino pelicula full hd, The Man in the High Castle (2016) Segunda Temporada [AMZN] WEB-DL 1080p Latino mega latino, The Man in the High Castle (2016) Segunda Temporada [AMZN] WEB-DL 1080p Latino 4k latino, The Man in the High Castle (2016) Segunda Temporada [AMZN] WEB-DL 1080p Latino pelicula completa, The Man in the High Castle (2016) Segunda Temporada [AMZN] WEB-DL 1080p Latino descargar gratis, descargar The Man in the High Castle (2016) Segunda Temporada [AMZN] WEB-DL 1080p Latino pelicula latino, The Man in the High Castle (2016) Segunda Temporada [AMZN] WEB-DL 1080p Latino 1 link mega, The Man in the High Castle (2016) Segunda Temporada [AMZN] WEB-DL 1080p Latino 1 link google drive, The Man in the High Castle (2016) Segunda Temporada [AMZN] WEB-DL 1080p Latino hd 1080p latino.
Comentarios 2
  • Andrex - 10 mayo, 2020

    ¿Puedes resubir los ficheros de toda la temporada 2?, es que están todos vacíos. Se lo agradecería las gracias y un saludo cordial.

    • Dracarys - 19 mayo, 2020

      serie resubida