×

¿Problemas para descargar con Mozilla, EDGE? Deshabilita la opción "Abrir vinculos en una pestaña nueva" tal como lo muestra ésta imagen.

The Man in the High Castle (2019) Temporada 4 AMZN WEB-DL 1080p Latino

1.211 vistas

Información de The Man in the High Castle (2019) Temporada 4 AMZN WEB-DL 1080p Latino

Datos de la película

  • Calidad: WEBDL
  • Audio: Español Latino E-AC3 5.1 AMAZON - Ingles E-AC3 5.1 AMAZON
  • Subtitulos: Español Latino SRT- FORZADOS SRT
  • Resolución: 1920x1080
  • Formato: MKV
  • Codec: H.264
  • Encoder: cinemaniahdd
  • Mediainfo: Clic para Mostrar Datos Ver
  • The Man In The High Castle T04E01 AMZN WEB-DL 1080p Latino.mkv
    Format                      : Matroska
    Format version              : Version 4
    File size                   : 4.13 GiB
    Duration                    : 57 min 47 s
    Overall bit rate            : 10.2 Mb/s
    Movie name                  : The Man In The High Castle T04E01 - CinemaniaHDD.Net
    Encoded date                : UTC 2019-11-19 19:23:40
    Writing application         : mkvmerge v40.0.0 ('Old Town Road + Pony') 64-bit
    Writing library             : libebml v1.3.9 + libmatroska v1.5.2

    Video
    ID                          : 1
    Format                      : AVC
    Format/Info                 : Advanced Video Codec
    Format profile              : High@L4
    Format settings             : CABAC / 4 Ref Frames
    Format settings, CABAC      : Yes
    Format settings, ReFrames   : 4 frames
    Codec ID                    : V_MPEG4/ISO/AVC
    Duration                    : 57 min 47 s
    Bit rate mode               : Constant
    Bit rate                    : 8 949 kb/s
    Nominal bit rate            : 10 000 kb/s
    Width                       : 1 920 pixels
    Height                      : 1 080 pixels
    Display aspect ratio        : 16:9
    Frame rate mode             : Constant
    Frame rate                  : 23.976 (24000/1001) FPS
    Color space                 : YUV
    Chroma subsampling          : 4:2:0
    Bit depth                   : 8 bits
    Scan type                   : Progressive
    Bits/(Pixel*Frame)          : 0.180
    Stream size                 : 3.61 GiB (87%)
    Title                       : CinemaniaHDD
    Default                     : Yes
    Forced                      : No
    Color range                 : Limited
    Color primaries             : BT.709
    Transfer characteristics    : BT.709
    Matrix coefficients         : BT.709

    Audio #1
    ID                          : 2
    Format                      : E-AC-3
    Format/Info                 : Enhanced AC-3
    Commercial name             : Dolby Digital Plus
    Codec ID                    : A_EAC3
    Duration                    : 57 min 47 s
    Bit rate mode               : Constant
    Bit rate                    : 640 kb/s
    Channel(s)                  : 6 channels
    Channel layout              : L R C LFE Ls Rs
    Sampling rate               : 48.0 kHz
    Frame rate                  : 31.250 FPS (1536 SPF)
    Compression mode            : Lossy
    Stream size                 : 265 MiB (6%)
    Title                       : Español latino [CinemaniaHDD]
    Language                    : Spanish
    Service kind                : Complete Main
    Default                     : Yes
    Forced                      : No

    Audio #2
    ID                          : 3
    Format                      : E-AC-3
    Format/Info                 : Enhanced AC-3
    Commercial name             : Dolby Digital Plus
    Codec ID                    : A_EAC3
    Duration                    : 57 min 47 s
    Bit rate mode               : Constant
    Bit rate                    : 640 kb/s
    Channel(s)                  : 6 channels
    Channel layout              : L R C LFE Ls Rs
    Sampling rate               : 48.0 kHz
    Frame rate                  : 31.250 FPS (1536 SPF)
    Compression mode            : Lossy
    Stream size                 : 265 MiB (6%)
    Title                       : Inglés [CinemaniaHDD]
    Language                    : English
    Service kind                : Complete Main
    Default                     : No
    Forced                      : No

    Text #1
    ID                          : 4
    Format                      : UTF-8
    Codec ID                    : S_TEXT/UTF8
    Codec ID/Info               : UTF-8 Plain Text
    Duration                    : 46 min 40 s
    Bit rate                    : 5 b/s
    Count of elements           : 69
    Stream size                 : 1.96 KiB (0%)
    Title                       : Forzados [CinemaniaHDD]
    Language                    : Spanish
    Default                     : Yes
    Forced                      : Yes

    Text #2
    ID                          : 5
    Format                      : UTF-8
    Codec ID                    : S_TEXT/UTF8
    Codec ID/Info               : UTF-8 Plain Text
    Duration                    : 54 min 37 s
    Bit rate                    : 47 b/s
    Count of elements           : 596
    Stream size                 : 19.1 KiB (0%)
    Title                       : Español latino [CinemaniaHDD]
    Language                    : Spanish
    Default                     : No
    Forced                      : No

    Menu
    00:00:00.000                : en:Amazon Original
    00:00:05.000                : en:Previously On
    00:03:58.000                : en:Juliana travels to another world
    00:05:30.000                : en:Opening Credits
    00:06:44.000                : en:A memorial service
    00:10:27.000                : en:Battle in the Neutral Zone
    00:15:32.000                : en:Life on the farm
    00:16:54.000                : en:Tension rise in the Pacific States
    00:19:52.000                : en:Fighting back against the Kampeitai
    00:27:12.000                : en:The resistance starts to lose hope
    00:30:34.000                : en:Juliana settles into her new life
    00:36:10.000                : en:The Kampeitai have a suspect
    00:39:51.000                : en:A surprise visit
    00:41:11.000                : en:Interpreting Tagomi's message
    00:43:32.000                : en:The power of propaganda
    00:45:06.000                : en:Kido is grooming his son for command
    00:47:32.000                : en:A meeting among rebels
    00:48:16.000                : en:Helen will do what she can to protect her family
    00:55:33.000                : en:End Credits

  • Peso: 4.13 GiB C/U - 36.4 GiB TOTAL

Sinopsis

La serie está basada en la novela homónima de Philip K. Dick, pero no se dejen confundir por sus afiches, porque a simple vista puede parecer estar desarrollada durante el mandato del Tercer Reich —y lo está— pero se trata de una realidad alternativa de lo que realmente sucedió al final de la Segunda Guerra Mundial, así que si lo que buscan es alimentarse de contenido histórico (verídico), pues esta no es la serie que buscan. The Man in the High Castle es la perfecta definición de ucronía, descrita como una reconstrucción histórica basada en hechos que realmente nunca sucedieron. Ambientada en los años 60s en una realidad donde la WWII la ganó la Alemania Nazi en conjunto con el Imperio Japonés, mientras los Estados Unidos de América se ven invadidos por estos dos países. Norteamérica se encuentra entonces repartida entre Japón y Alemania, dividida en Costa Este, Costa Oeste, y las fronteras que dividen a estas dos costas es el único espacio designado para la Zona Neutral.

Ficha técnica

Video trailer de la película

Enlaces de descarga

Rip de Bluray

Descargar The Man in the High Castle (2019) Temporada 4 AMZN WEB-DL 1080p Latino




Aportes de DPeliculasHDmega la pass es:dpeliculashdmega.org Aportes de CinemaniaHD la pass es:cinemaniahdd.com
Guardado en : Drama , Sci-Fi & Fantasy , Series

Películas relacionadas

descargar The Man in the High Castle (2019) Temporada 4 AMZN WEB-DL 1080p Latino WEBDL 1080p gratis, The Man in the High Castle (2019) Temporada 4 AMZN WEB-DL 1080p Latino WEBDL mega 1 link, The Man in the High Castle (2019) Temporada 4 AMZN WEB-DL 1080p Latino WEBDL serie completa, descargar The Man in the High Castle (2019) Temporada 4 AMZN WEB-DL 1080p Latino WEBDL gratis en mega.

The Man in the High Castle (2019) Temporada 4 AMZN WEB-DL 1080p Latino pelicula full hd, The Man in the High Castle (2019) Temporada 4 AMZN WEB-DL 1080p Latino mega latino, The Man in the High Castle (2019) Temporada 4 AMZN WEB-DL 1080p Latino 4k latino, The Man in the High Castle (2019) Temporada 4 AMZN WEB-DL 1080p Latino pelicula completa, The Man in the High Castle (2019) Temporada 4 AMZN WEB-DL 1080p Latino descargar gratis, descargar The Man in the High Castle (2019) Temporada 4 AMZN WEB-DL 1080p Latino pelicula latino, The Man in the High Castle (2019) Temporada 4 AMZN WEB-DL 1080p Latino 1 link mega, The Man in the High Castle (2019) Temporada 4 AMZN WEB-DL 1080p Latino 1 link google drive, The Man in the High Castle (2019) Temporada 4 AMZN WEB-DL 1080p Latino hd 1080p latino.
Comentarios 0